.
Авторизация | Регистрация
Хочешь лучшие торренты? Добавь свой email!
Добавить
» » Смертельное падение / Deadfall (1968) BDRip 720p от MediaClub | P скачать торрент бесплатно




    Смертельное падение / Deadfall (1968) BDRip 720p от MediaClub | P скачать торрент бесплатно

    Опубликовал: Админ | Дата: 27-02-2015, 11:09 | Просмотров: 396



    Детально о кино
    Русское название: Смертельное падение
    Русское название в мировом прокате: Deadfall
    Создали в: 1968
    Категория жанра: Драма, криминал
    Главный режиссер: Брайан Форбс
    Актеры: Майкл Кейн, Джованна Ралли, Эрик Портман, Дэвид Бак, Леонард Росситер, Джеральдин Шерман, Карлос Пьер, Владек Шейбал, Рената Тарраго, Нанетт Ньюман

    Сюжет фильма:
    Краткое описание фильма...Основательно изучив досье на гениального вора Генри Кларка, Ричард и Фей Моро предлагают ему сотрудничество. Супруги намерены провернуть искусную аферу - ограбить особняк известного миллионера Салинаса, но без помощи Генри им не обойтись. Взвесив все за и против Кларк принимает предложение, не предполагая, к каким последствиям приведет его решение…



    Снималось в: Великобритания / Salamander Film Productions
    Время просмотра: 01:59:51
    Перевод текста: Профессиональный многоголосый

    Файл
    Кодек для видео: x264
    Качество фильма: BDRip 720p
    Информация о видео: MPEG-4 AVC, 7000 Кбит/с, 1200x720, 23.976 кадр/с
    Информация о звуке: Русский, английский (AC3, 2 ch, 192 Кбит/с)
    Субтитры: Английские

    Семпл

    О релизе
    Синхронизация звука kaspr

    MI
    x264 info: frame I:1160 Avg QP:15.66 size:104008
    x264 info: frame P:31982 Avg QP:17.88 size: 53494
    x264 info: frame B:139274 Avg QP:19.69 size: 32032

    Format : Matroska
    Format version : Version 4 / Version 2
    File size : 6.18 GiB
    Duration : 1h 59mn
    Overall bit rate : 7 387 Kbps
    Movie name : -=MediaClub - Odessit=-
    Encoded date : UTC 2013-12-17 11:52:37
    Writing application : mkvmerge v6.1.0 (;Old Devil;) built on Mar 4 2013 09:10:42
    Writing library : libebml v1.3.0 libmatroska v1.4.0

    Video
    ID : 1
    Format : AVC
    Format/Info : Advanced Video Codec
    Format profile : High@L4.1
    Format settings, CABAC : Yes
    Format settings, ReFrames : 9 frames
    Codec ID : V_MPEG4/ISO/AVC
    Duration : 1h 59mn
    Bit rate : 7 000 Kbps
    Width : 1 200 pixels
    Height : 720 pixels
    Display aspect ratio : 1.667
    Frame rate : 23.976 fps
    Color space : YUV
    Chroma subsampling : 4:2:0
    Bit depth : 8 bits
    Scan type : Progressive
    Bits/(Pixel*Frame) : 0.338
    Stream size : 5.74 GiB (93%)
    Writing library : x264 core 130 r2273 b3065e6
    Encoding settings : cabac=1 / ref=9 / deblock=1:-3:-3 / analyse=0x3:0x133 / me=umh / subme=11 / psy=1 / psy_rd=1.00:0.20 / mixed_ref=1 / me_range=48 / chroma_me=1 / trellis=2 / 8x8dct=1 / cqm=0 / deadzone=21,11 / fast_pskip=0 / chroma_qp_offset=-3 / threads=6 / lookahead_threads=1 / sliced_threads=0 / nr=0 / decimate=0 / interlaced=0 / bluray_compat=0 / constrained_intra=0 / bframes=10 / b_pyramid=2 / b_adapt=2 / b_bias=0 / direct=3 / weightb=1 / open_gop=0 / weightp=2 / keyint=240 / keyint_min=23 / scenecut=40 / intra_refresh=0 / rc=2pass / mbtree=0 / bitrate=7000 / ratetol=1.0 / qcomp=0.60 / qpmin=0 / qpmax=69 / qpstep=4 / cplxblur=20.0 / qblur=0.5 / ip_ratio=1.40 / pb_ratio=1.30 / aq=1:1.00
    Language : English

    Audio #1
    ID : 2
    Format : AC-3
    Format/Info : Audio Coding 3
    Mode extension : CM (complete main)
    Codec ID : A_AC3
    Duration : 1h 59mn
    Bit rate mode : Constant
    Bit rate : 192 Kbps
    Channel(s) : 2 channels
    Channel positions : Front: L R
    Sampling rate : 48.0 KHz
    Bit depth : 16 bits
    Compression mode : Lossy
    Stream size : 165 MiB (3%)
    Title : Профессиональный многоголосый
    Language : Russian

    Audio #2
    ID : 3
    Format : AC-3
    Format/Info : Audio Coding 3
    Mode extension : CM (complete main)
    Codec ID : A_AC3
    Duration : 1h 59mn
    Bit rate mode : Constant
    Bit rate : 192 Kbps
    Channel(s) : 2 channels
    Channel positions : Front: L R
    Sampling rate : 48.0 KHz
    Bit depth : 16 bits
    Compression mode : Lossy
    Stream size : 165 MiB (3%)
    Language : English

    Text
    ID : 4
    Format : UTF-8
    Codec ID : S_TEXT/UTF8
    Codec ID/Info : UTF-8 Plain Text
    Language : English

    Menu
    00:00:00.000 : :Chapter 01
    00:11:23.683 : :Chapter 02
    00:21:57.316 : :Chapter 03
    00:31:02.861 : :Chapter 04
    00:38:24.302 : :Chapter 05
    00:52:55.172 : :Chapter 06
    00:59:13.550 : :Chapter 07
    01:08:22.098 : :Chapter 08
    01:29:22.357 : :Chapter 09
    01:38:05.880 : :Chapter 10
    01:47:30.444 : :Chapter 11
    01:56:27.981 : :Chapter 12

    Скриншоты для ознакомления


    Релиз подготовил: |
    Размер скачиваемого торрента: 6.18 GB (6639873807 Bytes)

    Смертельное падение / Deadfall (1968) BDRip 720p от MediaClub | P торрент скачать бесплатно
    загрузка...
    Рейтинг →
     (голосов: 1, оценка 3/5, голосовать можно 1 раз )

    Другие торренты по теме:

  • Смертельное падение / Dead Drop (2013) HDRip | P
  • Смертельное падение / Dead Drop (2013) HDRip от torrentfilm | P
  • Смертельное падение / Deadfall (1968) HDTV 1080i | P


    • Комментарии (0):

      Информация

      Информация

        Посетители, находящиеся в группе Гости, не могут оставлять комментарии в данной новости.

        ↓ Меню



        ↓ Опрос

        А Вы добавили сайт в закладки?
        Да
        Не


        Top 10 за месяц (Фильмы)