.
Авторизация | Регистрация
Хочешь лучшие торренты? Добавь свой email!
Добавить
» » Мулан / Hua Mulan (2009) BDRip-AVC от RG Jolly Roger | P скачать торрент бесплатно




    Мулан / Hua Mulan (2009) BDRip-AVC от RG Jolly Roger | P скачать торрент бесплатно

    Опубликовал: Админ | Дата: 27-02-2015, 11:09 | Просмотров: 330

    Русское название: Мулан
    Русское название в мировом прокате: Hua Mulan



    Создали в: 2009 г.
    Категория жанра: драма, мелодрама, приключения, военный

    Главный режиссер: Джингл Ма, Вэй Донг / Jingle Ma, Wei Dong

    Актеры: Чжао Вэй, Чэнь Кунь, Ху Цзюнь, Джейси Чан, Юй Жун Гуан, Цзяо Сюй, Сунь Чжоу, Йойо Лю, Мин Ксу, Чаншэн Лю

    Сюжет: Это легенда о женщине, которая готова отдать свою единственную любовь, жизнь ради своей родины. Несколько столетий назад император издал указ, по которому каждая семья должна предоставить одного солдата в действующую армию.

    У семьи Хуа нет наследника мужского пола и по закону в армию должен идти стареющий отец. В место того, чтобы посылать отца на верную смерть его дочь Мулан, маскируется под мужчину и занимает его место.



    Создали в: США, Китай
    Время просмотра: 01:54:11
    Перевод текста: Профессиональный (многоголосый, закадровый)

    Файл
    Качество фильма видео: BDRip-AVC
    Контейнер: MKV
    Информация о видео кодек: H.264
    Информация о звуке кодек: AC3
    Информация о видео: MPEG4 Video (H264) 1056x448 23.976fps 1830 Кбит/сек
    Информация о звуке: Dolby AC3 48000Hz 6ch 448 Kbps / Русский / Китайский
    Субтитры: русские (отключаемые)
    Media Info

    Общее
    Уникальный идентификатор : 191844200216369026948106972440835109415 (0x9053D9571AF9D0ECB75B89118C4BB227)
    Полное имя : D:Mulan.2009.H.264.BDRip-AVC.JRG.mkv
    Формат : Matroska
    Версия формата : Version 4 / Version 2
    Размер файла : 2,17 Гбайт
    Продолжительность : 1 ч. 54 м.
    Общий поток : 2726 Кбит/сек
    Дата кодирования : UTC 2013-10-07 18:09:48
    Программа кодирования : mkvmerge v6.3.0 (;You can;t stop me!;) built on Jun 28 2013 20:09:41
    Библиотека кодирования : libebml v1.3.0 libmatroska v1.4.0

    Видео
    Идентификатор : 1
    Формат : AVC
    Формат/Информация : Advanced Video Codec
    Профиль формата : High@L4.1
    Параметр CABAC формата : Да
    Параметр ReFrames формата : 7 кадров
    Идентификатор кодека : V_MPEG4/ISO/AVC
    Битрейт : 1830 Кбит/сек
    Ширина : 1056 пикселей
    Высота : 448 пикселей
    Соотношение сторон : 2,35:1
    Режим частоты кадров : Переменный
    Частота кадров в оригинале : 23,976 кадра/сек
    Цветовое пространство : YUV
    Субдискретизация насыщенности : 4:2:0
    Битовая глубина : 8 бит
    Тип развёртки : Прогрессивная
    Бит/(Пиксели*Кадры) : 0.161
    Библиотека кодирования : x264 core 130 r2273 b3065e6
    Настройки программы : cabac=1 / ref=7 / deblock=1:-1:-1 / analyse=0x3:0x133 / me=umh / subme=10 / psy=1 / psy_rd=1.00:0.15 / mixed_ref=1 / me_range=24 / chroma_me=1 / trellis=2 / 8x8dct=1 / cqm=0 / deadzone=21,11 / fast_pskip=0 / chroma_qp_offset=-3 / threads=3 / lookahead_threads=1 / sliced_threads=0 / nr=0 / decimate=1 / interlaced=0 / bluray_compat=0 / constrained_intra=0 / bframes=6 / b_pyramid=2 / b_adapt=2 / b_bias=0 / direct=3 / weightb=1 / open_gop=0 / weightp=2 / keyint=250 / keyint_min=23 / scenecut=40 / intra_refresh=0 / rc_lookahead=50 / rc=2pass / mbtree=1 / bitrate=1830 / ratetol=1.0 / qcomp=0.60 / qpmin=0 / qpmax=69 / qpstep=4 / cplxblur=20.0 / qblur=0.5 / ip_ratio=1.40 / aq=1:1.00
    Default : Да
    Forced : Нет

    Аудио #1
    Идентификатор : 2
    Формат : AC-3
    Формат/Информация : Audio Coding 3
    Расширение режима : CM (complete main)
    Параметр Endianness формата : Big
    Идентификатор кодека : A_AC3
    Продолжительность : 1 ч. 54 м.
    Вид битрейта : Постоянный
    Битрейт : 448 Кбит/сек
    Каналы : 6 каналов
    Расположение каналов : Front: L C R, Side: L R, LFE
    Частота : 48,0 КГц
    Битовая глубина : 16 бит
    Метод сжатия : С потерями
    Размер потока : 366 Мбайт (16%)
    Язык : Russian
    Default : Да
    Forced : Нет

    Аудио #2
    Идентификатор : 3
    Формат : AC-3
    Формат/Информация : Audio Coding 3
    Расширение режима : CM (complete main)
    Параметр Endianness формата : Big
    Идентификатор кодека : A_AC3
    Продолжительность : 1 ч. 54 м.
    Вид битрейта : Постоянный
    Битрейт : 448 Кбит/сек
    Каналы : 6 каналов
    Расположение каналов : Front: L C R, Side: L R, LFE
    Частота : 48,0 КГц
    Битовая глубина : 16 бит
    Метод сжатия : С потерями
    Размер потока : 366 Мбайт (16%)
    Язык : Chinese
    Default : Нет
    Forced : Нет

    Текст
    Идентификатор : 4
    Формат : UTF-8
    Идентификатор кодека : S_TEXT/UTF8
    Идентификатор кодека/Информация : UTF-8 Plain Text
    Язык : Russian
    Default : Нет
    Forced : Нет



    Скриншоты для ознакомления



    Релиз подготовил:
    Размер скачиваемого торрента: 2.17 GB (2334302673 Bytes)

    Мулан / Hua Mulan (2009) BDRip-AVC от RG Jolly Roger | P торрент скачать бесплатно
    загрузка...
    Рейтинг →
     (голосов: 1, оценка 5/5, голосовать можно 1 раз )

    Другие торренты по теме:

  • Мулан 2 / Mulan 2 (2004) BDRip от HQCLUB
  • Мулан / Mulan (1998) BDRip-AVC от MediaClub | D, P2, A
  • Мулан / Mulan (1998) HDRip от New-Team
  • Мулан / Mulan (1998) HDRip от Scarabey | D
  • Мулан 2 / Mulan II (2004) HDRip от Scarabey | D


    • Комментарии (0):

      Информация

      Информация

        Посетители, находящиеся в группе Гости, не могут оставлять комментарии в данной новости.

        ↓ Меню



        ↓ Опрос

        А Вы добавили сайт в закладки?
        Да
        Не


        Top 10 за месяц (Фильмы)