.
Авторизация | Регистрация
Хочешь лучшие торренты? Добавь свой email!
Добавить
» » Винчи, или Ва-банк 3 / Vinci (2004) DVDRip-AVC от New-Team скачать через торрент бесплатно




    Винчи, или Ва-банк 3 / Vinci (2004) DVDRip-AVC от New-Team скачать через торрент бесплатно

    Опубликовал: Админ | Дата: 27-02-2015, 11:09 | Просмотров: 331


    Снималось в: Польша
    Создали в: Студия Фильмов Зебра
    Категория жанра: комедия, криминал
    Создали в: 2004
    Время просмотра: 01:47:38

    Перевод текста: Профессиональный (многоголосый закадровый)
    Оригинальная аудиодорожка: польский
    Субтитры подготовлены: нет

    Главный режиссер: Юлиуш Махульский / Juliusz Machulski

    Актеры:
    Роберт Вечкевич, Юзеф Палечка, Борис Шиц, Ежи Гралек, Мариола Паячковская, Марчин Дорочиньский, Лукаш Симлат, Карина Северин, Мечислав Громбка, Халина Лабонарска...

    Сюжет:
    Два поляка — Цума (Robert Wieckiewicz) и Юлиан (Borys Szyc) специализируются на квартирных кражах произведений искусства. После ограбления коллекционера Цуму задерживает полиция, но его напарнику удаётся скрыться с добычей. Через несколько лет Цума выходит из тюрьмы в отпуск по болезни. У него уже есть работа — в пользу крупного бизнесмена по прозвищу Толстый (Mieczyslaw Grabka) он должен похитить картину Дама с горностаем работы Леонардо да Винчи, которая находится в национальном музее. Во время кражи Цума намерен заменить картину копией. За помощью Цума обращается к своему другу Юлиану. Он не знает, что за прошедшее время Юлиан завязал и теперь работает в полиции. Юлиан не хочет, чтобы картина, являющаяся национальным достоянием Польши, была украдена. Он соглашается помочь Цуме, на самом же деле заказывает две копии, дабы обмануть самого напарника и сохранить картину государству…



    Исходник: DVD5 R5
    Тип релиза: DVDRip-AVC
    Контейнер: MKV

    Информация о видео: 720-1024x574 (16:9), 25 fps, H264 ~ 2332 kbps avg, 0.206 bit/pixel
    Информация о звуке: 48 kHz, Dolby AC3 5.1, 384 kbps Русский
    Информация о звуке: 48 kHz, Dolby AC3 5.1, 384 kbps Польский

    Раздача от:
    MediaInfo

    Общее
    Полное имя : Vinchi.ili.Vabank.3.2004.DVDRip-AVC_New-team_by_AVP_Studio.mkv
    Формат : Matroska
    Версия формата : Version 4 / Version 2
    Размер файла : 2,18 Гбайт
    Продолжительность : 1 ч. 47 м.
    Общий поток : 2901 Кбит/сек
    Название фильма : Vinchi.ili.Vabank.3.2004.DVDRip-AVC_New-team_by_AVP_Studio
    Дата кодирования : UTC 2013-12-16 09:03:58
    Программа кодирования : mkvmerge v6.6.0 (;The Edge Of The In Between;) built on Dec 1 2013 17:55:00
    Библиотека кодирования : libebml v1.3.0 libmatroska v1.4.1

    Видео
    Идентификатор : 1
    Формат : AVC
    Формат/Информация : Advanced Video Codec
    Профиль формата : High@L4.1
    Параметр CABAC формата : Да
    Параметр ReFrames формата : 6 кадров
    Идентификатор кодека : V_MPEG4/ISO/AVC
    Продолжительность : 1 ч. 47 м.
    Битрейт : 2132 Кбит/сек
    Ширина : 720 пикселей
    Высота : 574 пикселя
    Соотношение сторон : 16:9
    Соотношение сторон в оригинале : 16:9
    Частота кадров : 25,000 кадров/сек
    Цветовое пространство : YUV
    Субдискретизация насыщенности : 4:2:0
    Битовая глубина : 8 бит
    Тип развёртки : Прогрессивная
    Бит/(Пиксели*Кадры) : 0.206
    Размер потока : 1,56 Гбайт (72%)
    Заголовок : Источник DVD
    Библиотека кодирования : x264 core 138 r2356 a1d3d17
    Настройки программы : cabac=1 / ref=6 / deblock=1:-2:-1 / analyse=0x3:0x113 / me=umh / subme=10 / psy=1 / psy_rd=1.00:0.05 / mixed_ref=1 / me_range=32 / chroma_me=1 / trellis=2 / 8x8dct=1 / cqm=0 / deadzone=21,11 / fast_pskip=0 / chroma_qp_offset=-3 / threads=3 / lookahead_threads=1 / sliced_threads=0 / nr=0 / decimate=0 / interlaced=0 / bluray_compat=0 / constrained_intra=0 / bframes=8 / b_pyramid=2 / b_adapt=2 / b_bias=0 / direct=3 / weightb=1 / open_gop=0 / weightp=2 / keyint=250 / keyint_min=25 / scenecut=40 / intra_refresh=0 / rc=2pass / mbtree=0 / bitrate=2132 / ratetol=1.0 / qcomp=0.60 / qpmin=0 / qpmax=69 / qpstep=4 / cplxblur=20.0 / qblur=0.5 / ip_ratio=1.40 / pb_ratio=1.30 / aq=1:1.00
    Язык : Polish
    Default : Да
    Forced : Нет

    Аудио #1
    Идентификатор : 2
    Формат : AC-3
    Формат/Информация : Audio Coding 3
    Расширение режима : CM (complete main)
    Идентификатор кодека : A_AC3
    Продолжительность : 1 ч. 47 м.
    Вид битрейта : Постоянный
    Битрейт : 384 Кбит/сек
    Каналы : 6 каналов
    Расположение каналов : Front: L C R, Side: L R, LFE
    Частота : 48,0 КГц
    Битовая глубина : 16 бит
    Метод сжатия : С потерями
    Размер потока : 296 Мбайт (13%)
    Заголовок : Источник DVD Dolby Digital 5,1 384 kbps
    Язык : Russian
    Default : Да
    Forced : Нет

    Аудио #2
    Идентификатор : 3
    Формат : AC-3
    Формат/Информация : Audio Coding 3
    Расширение режима : CM (complete main)
    Идентификатор кодека : A_AC3
    Продолжительность : 1 ч. 47 м.
    Вид битрейта : Постоянный
    Битрейт : 384 Кбит/сек
    Каналы : 6 каналов
    Расположение каналов : Front: L C R, Side: L R, LFE
    Частота : 48,0 КГц
    Битовая глубина : 16 бит
    Метод сжатия : С потерями
    Размер потока : 296 Мбайт (13%)
    Заголовок : Источник DVD Dolby Digital 5,1 384 kbps
    Язык : Polish
    Default : Нет
    Forced : Нет

    Меню
    00:00:00.000 : ru:00:00:00.000000000
    00:05:00.000 : :00:05:00.000000000
    00:10:00.000 : :00:10:00.000000000
    00:15:00.000 : :00:15:00.000000000
    00:20:00.000 : :00:20:00.000000000
    00:25:00.000 : :00:25:00.000000000
    00:30:00.000 : :00:30:00.000000000
    00:35:00.000 : :00:35:00.000000000
    00:40:00.000 : :00:40:00.000000000
    00:45:00.000 : :00:45:00.000000000
    00:50:00.000 : :00:50:00.000000000
    00:55:00.000 : :00:55:00.000000000
    01:00:00.000 : :01:00:00.000000000
    01:05:00.000 : :01:05:00.000000000
    01:10:00.000 : :01:10:00.000000000
    01:15:00.000 : :01:15:00.000000000
    01:20:00.000 : :01:20:00.000000000
    01:25:00.000 : :01:25:00.000000000
    01:30:00.000 : :01:30:00.000000000
    01:35:00.000 : :01:35:00.000000000
    01:40:00.000 : :01:40:00.000000000
    01:45:00.000 : :01:45:00.000000000

    Скриншоты для ознакомления



    Награды

    2004, 29-й Фестиваль Польских Художественных Фильмов, Гдыня:
    Приз за лучший сценарий — Юлиушу Махульскому.
    2004, Международный фестиваль чёрных фильмов, Курмайор (Noir in Festival, Courmayeur):
    Приз жюри — Роберту Венцкевичу.
    Приз жюри — Борису Шицу.
    2005, Польская Кинематографическая Премия Орёл:
    Премия в номинации Лучшая режиссура — Юлиушу Махульскому.
    Премия в номинации Лучший сценарий — Юлиушу Махульскому.

    Размер скачиваемого торрента: 2.18 GB (2342242296 Bytes)

    Винчи, или Ва-банк 3 / Vinci (2004) DVDRip-AVC от New-Team скачать через торрент бесплатно
    загрузка...
    Рейтинг →
     (голосов: 1, оценка 4/5, голосовать можно 1 раз )

    Другие торренты по теме:

  • Винчи, или Ва-банк 3 / Vinci (2004) DVDRip от New-Team


    • Комментарии (0):

      Информация

      Информация

        Посетители, находящиеся в группе Гости, не могут оставлять комментарии в данной новости.

        ↓ Меню



        ↓ Опрос

        А Вы добавили сайт в закладки?
        Да
        Не


        Top 10 за месяц (Фильмы)