.
Авторизация | Регистрация
Хочешь лучшие торренты? Добавь свой email!
Добавить
» » Подглядывающий / Peeping Tom (1960) BDRip 1080p by msltel | P, A скачать через торрент бесплатно




    Подглядывающий / Peeping Tom (1960) BDRip 1080p by msltel | P, A скачать через торрент бесплатно

    Опубликовал: Админ | Дата: 27-02-2015, 11:09 | Просмотров: 346



    Русское название: Подглядывающий
    Русское название в мировом прокате: Peeping Tom
    Создали в: 1960
    Категория жанра: Триллер
    Снималось в: Великобритания, Michael Powell (Theatre)
    Главный режиссер: Майкл Пауэлл
    Актеры: Карлхайнц Бём, Мойра Ширер, Анна Мэсси, Максин Одли, Бренда Брюс, Майлз Маллсон, Эзмонд Найт, Мартин Миллер, Майкл Гудлифф, Джек Уотсон

    Сюжет фильма: Молодой человек Марк снимает на кинокамеру проститутку. Он снимает искажённое ужасом лицо, когда камера приближается к ней. В это время из ножки штатива внезапно высовывается пика и убивает её. Позднее он снимает момент, когда труп проститутки забирает полиция. Марк фотографирует обнажённых молодых женщин в студии, расположенной под бутиком, владелец которого приторговывает фотографиями голых женщин...

    Качество фильма: BDRip 1080p
    Размер скачиваемого торрента: 9.98 ГБ
    Время просмотра: 01:41:39

    Информация о видео: MPEG-4 AVC, 10.9 Mбит/с, 1784x1080
    Информация о звуке 1: русский, 48 kHz, AC3, 2 ch, 192 kbps avg, Профессиональный многоголосый, Спб, 5 канал
    Информация о звуке 2: русский, 48 kHz, AC3, 2 ch, 192 kbps avg, Авторский, Сергей Кузнецов
    Информация о звуке 3: английский, 48 kHz, AC3, 2 ch, 192 kbps avg, Оригинал
    Субтитры 1: русские (urikis)
    Субтитры 2: английские

    Внешний файл
    Информация о звуке: английский, 48 kHz, PCM, 6 ch, 2304 kbps avg, Оригинал

    Имеются неименованные главы/чаптеры.

    Исходник: Renesаns (Кинозал)

    Сравнение с исходником



    MediaInfo Лог х264
    Общее
    Полное имя : E:VideoPodgljadyvajushij.1960.x264.BDRip.1080pPodgljadyvajushij.1960.Original.eng.wav
    Формат : Wave
    Размер файла : 1,64 Гбайт
    Продолжительность : 1 ч. 41 м.
    Режим общего битрейта : Постоянный
    Общий поток : 2304 Кбит/сек

    Аудио
    Формат : PCM
    Параметр Endianness формата : Little
    Параметр Sign формата : Signed
    Идентификатор кодека : 1
    Продолжительность : 1 ч. 41 м.
    Вид битрейта : Постоянный
    Битрейт : 2304 Кбит/сек
    Каналы : 2 канала
    Частота : 48,0 КГц
    Битовая глубина : 24 бит
    Размер потока : 1,64 Гбайт (100%)

    Общее
    Уникальный идентификатор : 208106947866089933360573326318286011770 (0x9C8FF0B46C3D4441AE40315C0091FD7A)
    Полное имя : E:VideoPodgljadyvajushij.1960.x264.BDRip.1080pPodgljadyvajushij.1960.x264.BDRip.1080p.mkv
    Формат : Matroska
    Версия формата : Version 4 / Version 2
    Размер файла : 8,35 Гбайт
    Продолжительность : 1 ч. 41 м.
    Общий поток : 11,8 Мбит/сек
    Название фильма : Подглядывающий / Peeping Tom / 1960 / BDRip -- STarankov
    Дата кодирования : UTC 2013-12-16 01:37:44
    Программа кодирования : mkvmerge v6.6.0 (;The Edge Of The In Between;) built on Dec 1 2013 17:55:00
    Библиотека кодирования : libebml v1.3.0 libmatroska v1.4.1

    Видео
    Идентификатор : 1
    Формат : AVC
    Формат/Информация : Advanced Video Codec
    Профиль формата : High@L4.1
    Параметр CABAC формата : Да
    Параметр ReFrames формата : 4 кадра
    Идентификатор кодека : V_MPEG4/ISO/AVC
    Продолжительность : 1 ч. 41 м.
    Битрейт : 10,9 Мбит/сек
    Ширина : 1784 пикселя
    Высота : 1080 пикселей
    Соотношение сторон : 1,652
    Режим частоты кадров : Постоянный
    Частота кадров : 24,000 кадра/сек
    Цветовое пространство : YUV
    Субдискретизация насыщенности : 4:2:0
    Битовая глубина : 8 бит
    Тип развёртки : Прогрессивная
    Бит/(Пиксели*Кадры) : 0.237
    Размер потока : 7,77 Гбайт (93%)
    Библиотека кодирования : x264 core 138 r2358 9e941d1
    Залил: msltel
    Размер скачиваемого торрента: 9.98 GB (10718133229 Bytes)


    Подглядывающий / Peeping Tom (1960) BDRip 1080p by msltel | P, A скачать через торрент бесплатно
    загрузка...
    Рейтинг →
     (голосов: 1, оценка 4/5, голосовать можно 1 раз )

    Другие торренты по теме:

  • Подглядывающий на кухне / Kick the Cock (2008) BDRip 720p скачать через торрент бесплатно
  • Подглядывающий / Peeping Tom (1960) BDRip by msltel | P, A скачать через торрент бесплатно
  • Подглядывающий / Peeping Tom (1960) BDRip 720p by msltel | P, A
  • Подглядывающий на кухне / Kick the Cock (2008) HDRip от ExKinoRay скачать через торрент бесплатно
  • Человек, который смотрит / Подглядывающий / LUomo Che Guarda (1994) DVDRip-AVC
  • Подглядывающий / Luomo che guarda (1993) DVDRip от MediaClub | КПК скачать через торрент бесплатно
  • Подглядывающий на пляже / Voyeur beach / Watchful Eye (2002) DVDRip-AVC скачать через торрент бесплатно
  • Подглядывающий / Peeping Tom (1960) BDRip-AVC от ExKinoRay | P, A


    • Комментарии (0):

      Информация

      Информация

        Посетители, находящиеся в группе Гости, не могут оставлять комментарии в данной новости.

        ↓ Меню



        ↓ Опрос

        А Вы добавили сайт в закладки?
        Да
        Не


        Top 10 за месяц (Фильмы)