.
Авторизация | Регистрация
Хочешь лучшие торренты? Добавь свой email!
Добавить
» » Убойный уикенд / Cottage Country (2013) HDRip от BroDim | D | Чистый звук скачать через торрент бесплатно




    Убойный уикенд / Cottage Country (2013) HDRip от BroDim | D | Чистый звук скачать через торрент бесплатно

    Опубликовал: Админ | Дата: 27-02-2015, 11:09 | Просмотров: 319



    Создали в: 2013
    Снималось в: Канада / Whizbang Films Inc.
    Категория жанра: комедия, криминал, триллер
    Время просмотра: 01:31:21
    Перевод текста: Профессиональный (полное дублирование) Чистый звук
    Субтитры подготовлены: нет
    Оригинальная аудиодорожка: нет
    Главный режиссер: Питер Веллингтон / Peter Wellington



    Актеры:
    Тайлер Лабайн, Малин Акерман, Люси Панч, Дэн Петронижевич, Бенджамин Эйрс, Кеннет Уэлш, Нэнси Битти, Сабрина Грдевич, Джим Аннан, Джонатан Кромби и др.

    Сюжет:
    Тодд Чиповски собирается провести незабываемый уикенд в загородном коттедже, который он арендовал специально для того, чтобы сделать предложение своей возлюбленной Кэмми Райан. Но торжественное событие и чудесный отдых подпортило появление братца Тодда Сэлинджера и его подружки Маши. Однако выходные всё равно становятся для героев незабываемыми — особенно после того, как Тодд в порыве ярости случайно убивает своего брата топором.

    Автор рипа: ArtZak

    Качество фильма: HDRip | Сэмпл
    Тип видео: AVI
    Информация о видео: MPEG4, XviD, 720x392 (1.85:1), 24.000 fps, 2 089 Kbps (0.308 bit/pixel)
    Информация о звуке: AC-3, 48.0 KHz, 2 ch, 192 Kbps, CBR
    MI
    General
    Complete name : Cottage Country.2013.D.HDRip.1.46Gb.ArtZak_BroDim.avi
    Format : AVI
    Format/Info : Audio Video Interleave
    File size : 1.46 GiB
    Duration : 1h 31mn
    Overall bit rate : 2 291 Kbps
    Writing application : VirtualDubMod 1.5.10.2 (build 2540/release)
    Writing library : VirtualDubMod build 2540/release

    Video
    ID : 0
    Format : MPEG-4 Visual
    Format profile : Advanced Simple@L5
    Format settings, BVOP : 1
    Format settings, QPel : No
    Format settings, GMC : No warppoints
    Format settings, Matrix : Default (H.263)
    Codec ID : XVID
    Codec ID/Hint : XviD
    Duration : 1h 31mn
    Bit rate : 2 089 Kbps
    Width : 720 pixels
    Height : 392 pixels
    Display aspect ratio : 1.85:1
    Frame rate : 24.000 fps
    Color space : YUV
    Chroma subsampling : 4:2:0
    Bit depth : 8 bits
    Scan type : Progressive
    Compression mode : Lossy
    Bits/(Pixel*Frame) : 0.308
    Stream size : 1.33 GiB (91%)
    Writing library : XviD 1.2.1 (UTC 2008-12-04)

    Audio
    ID : 1
    Format : AC-3
    Format/Info : Audio Coding 3
    Mode extension : CM (complete main)
    Format settings, Endianness : Big
    Codec ID : 2000
    Duration : 1h 31mn
    Bit rate mode : Constant
    Bit rate : 192 Kbps
    Channel count : 2 channels
    Channel positions : Front: L R
    Sampling rate : 48.0 KHz
    Bit depth : 16 bits
    Compression mode : Lossy
    Stream size : 125 MiB (8%)
    Alignment : Aligned on interleaves
    Interleave, duration : 42 ms (1.00 video frame)
    Interleave, preload duration : 512 ms
    Скриншоты для ознакомления






    Релиз подготовил:

    Размер скачиваемого торрента: 1.46 GB (1569458176 Bytes)

    Убойный уикенд / Cottage Country (2013) HDRip от BroDim | D | Чистый звук скачать через торрент бесплатно
    загрузка...
    Рейтинг →
     (голосов: 1, оценка 3/5, голосовать можно 1 раз )

    Другие торренты по теме:

  • Убойный уикенд / Cottage Country (2013) HDRip | L1
  • Убойный уикенд (2013) скачать через торрент бесплатно
  • Убойный уикенд / Cottage Country (2012) BDRip-AVC | Гоблин
  • Убойный уикенд / Cottage Country (2013) BDRip от Rulya74 | D | Чистый звук | L1 скачать через торрент бесплатно
  • Убойный уикенд / Cottage Country (2013) BDRip 720p от leonardo 59 Scarabey | Чистый звук скачать через торрент бесплатно
  • Убойный уикенд / Cottage Country (2013) HDRip от Torrange | D | Чистый звук
  • Убойный уикенд / Cottage Country (2013) BDRip-AVC от leonardo 59 Scarabey | Чистый звук
  • Убойный уикенд / Cottage Country (2013) BDRip 1080p от Prok-Torrent | Лицензия скачать через торрент бесплатно


    • Комментарии (0):

      Информация

      Информация

        Посетители, находящиеся в группе Гости, не могут оставлять комментарии в данной новости.

        ↓ Меню



        ↓ Опрос

        А Вы добавили сайт в закладки?
        Да
        Не


        Top 10 за месяц (Фильмы)