.
Авторизация | Регистрация
Хочешь лучшие торренты? Добавь свой email!
Добавить
» » Срочное погружение / Crash Dive (1997) HDRip от MediaClub | P скачать через торрент бесплатно




    Срочное погружение / Crash Dive (1997) HDRip от MediaClub | P скачать через торрент бесплатно

    Опубликовал: Админ | Дата: 27-02-2015, 11:09 | Просмотров: 440



    Детально о кино
    Русское название: Срочное погружение
    Русское название в мировом прокате: Crash Dive
    Создали в: 1997
    Категория жанра: Боевик, триллер, драма
    Главный режиссер: Эндрю Стивенс
    Актеры: Майкл Дудикофф, Фредерик Форрест, Рейнер Шёне, Джей Аковоне, Клэй Гринбуш, Катрин Белл, Майкл Кавана, Сайрус Фармер, Тайм Уинтерс

    Сюжет фильма:
    Экипаж атомной подводной лодки Улисс спасает жертв кораблекрушения, но жертвы оказываются террористами и захватывают подводку. Только бывший морпех может спасти экипаж, проникнув на борт лодки, уже находящейся под водой. Термин аварийное погружение используется, когда лодка пытается ускользнуть с экранов радаров, и никогда не предпринимается атомными подлодками.



    Снималось в: США / Cabin Fever Entertainment Inc.
    Время просмотра: 01:30:22
    Перевод текста: Профессиональный многоголосый

    Файл
    Кодек для видео: XviD
    Качество фильма: HDRip
    Информация о видео: 720x400 (1.80:1), 23.976 fps, XviD build 73 ~1845 kbps avg, 0.27 bit/pixel
    Информация о звуке: 48 kHz, AC3 Dolby Digital, 3/2 (L,C,R,l,r) LFE ch, ~448 kbps

    Семпл

    MI
    Format : AVI
    Format/Info : Audio Video Interleave
    File size : 1.45 GiB
    Duration : 1h 30mn
    Overall bit rate : 2 303 Kbps
    Movie name : Crash.Dive.1997.XviD.HDRip.-MediaClub
    Director : -=MediaClub - Odessit=-
    Writing application : VirtualDubMod 1.5.10.3 | www.virtualdub-fr.org || (build 2550/release)
    Writing library : VirtualDubMod build 2550/release

    Video
    ID : 0
    Format : MPEG-4 Visual
    Format profile : Advanced Simple@L5
    Format settings, BVOP : 1
    Format settings, QPel : No
    Format settings, GMC : No warppoints
    Format settings, Matrix : Custom
    Codec ID : XVID
    Codec ID/Hint : XviD
    Duration : 1h 30mn
    Bit rate : 1 846 Kbps
    Width : 720 pixels
    Height : 400 pixels
    Display aspect ratio : 16:9
    Frame rate : 23.976 fps
    Color space : YUV
    Chroma subsampling : 4:2:0
    Bit depth : 8 bits
    Scan type : Progressive
    Compression mode : Lossy
    Bits/(Pixel*Frame) : 0.267
    Stream size : 1.17 GiB (80%)
    Writing library : XviD 73

    Audio
    ID : 1
    Format : AC-3
    Format/Info : Audio Coding 3
    Mode extension : CM (complete main)
    Codec ID : 2000
    Duration : 1h 30mn
    Bit rate mode : Constant
    Bit rate : 448 Kbps
    Channel(s) : 6 channels
    Channel positions : Front: L C R, Side: L R, LFE
    Sampling rate : 48.0 KHz
    Bit depth : 16 bits
    Compression mode : Lossy
    Stream size : 290 MiB (19%)
    Alignment : Split accross interleaves
    Interleave, duration : 42 ms (1.00 video frame)
    Interleave, preload duration : 500 ms

    Скриншоты для ознакомления


    Релиз подготовил: |
    Размер скачиваемого торрента: 1.45 GB (1561200640 Bytes)

    Срочное погружение / Crash Dive (1997) HDRip от MediaClub | P скачать через торрент бесплатно
    загрузка...
    Рейтинг →
     (голосов: 1, оценка 5/5, голосовать можно 1 раз )

    Другие торренты по теме:

  • Срочное Погружение (Тайна Борта 25-16, Подводный Капкан) / Submerged / 2000 / ПМ / DVDRip


    • Комментарии (0):

      Информация

      Информация

        Посетители, находящиеся в группе Гости, не могут оставлять комментарии в данной новости.

        ↓ Меню



        ↓ Опрос

        А Вы добавили сайт в закладки?
        Да
        Не


        Top 10 за месяц (Фильмы)