.
Авторизация | Регистрация
Хочешь лучшие торренты? Добавь свой email!
Добавить
» » Госпожа горничная / Maid in Manhattan (2002) BDRip-AVC от RG Jolly Roger скачать через торрент бесплатно




    Госпожа горничная / Maid in Manhattan (2002) BDRip-AVC от RG Jolly Roger скачать через торрент бесплатно

    Опубликовал: Админ | Дата: 27-02-2015, 11:09 | Просмотров: 330

    Русское название: Госпожа горничная
    Русское название в мировом прокате: Maid in Manhattan

    Создали в: 2002 г.
    Категория жанра: драма, мелодрама, комедия
    Главный режиссер: Уэйн Ван / Wayne Wang

    Актеры: Дженнифер Лопез, Рэйф Файнс, Наташа Ричардсон, Стэнли Туччи, Тайлер Пози, Фрэнсис Конрой, Крис Айгеман, Эми Седарис, Марисса Мэтроун, Присцилла Лопез

    Сюжет: Роскошный отель на Манхэттене видел немало любовных историй. Но та, что случилась с одной из его служащих — молодой горничной Марисой Вентурой — самая удивительная. Однажды, убирая номер богатой дамы, Мариса увидела платье — белое, роскошное и безумно дорогое.
    Искушение оказалось слишком велико, и она осмелилась примерить наряд. В этот момент в гостиную вошел молодой миллионер и будущий сенатор — красавец Кристофер Маршалл. Красота Марисы поразила его в самое сердце.
    Он влюбился с первого взгляда и начал ухаживать. К тому же решил, что незнакомка принадлежит к высшему свету. А у девушки не хватило духу сразу сказать, что она всего лишь служанка…



    Создали в: США
    Время просмотра: 01:45:17
    Перевод текста: Профессиональный (полное дублирование)

    Файл
    Качество фильма видео: BDRip-AVC
    Контейнер: MKV
    Информация о видео кодек: H.264
    Информация о звуке кодек: AC3
    Информация о видео: MPEG4 Video (H264) 1040x432 23.976fps 2059 Kbps
    Информация о звуке: Dolby AC3 48000Hz 6ch 448 Kbps / Русский / Английский
    Субтитры: русские, английские (отключаемые)

    Media Info

    Общее
    Уникальный идентификатор : 219985398005509041907548311486637414120 (0xA57FA5834BE68FD384C2559A373616E8)
    Полное имя : F:Gospozha.gornichnaja.2002.H.264.BDRip-AVC.JRG.mkv
    Формат : Matroska
    Версия формата : Version 4 / Version 2
    Размер файла : 2,17 Гбайт
    Продолжительность : 1 ч. 45 м.
    Общий поток : 2956 Кбит/сек
    Дата кодирования : UTC 2013-12-12 16:33:37
    Программа кодирования : mkvmerge v6.3.0 (;You can;t stop me!;) built on Jun 28 2013 20:09:41
    Библиотека кодирования : libebml v1.3.0 libmatroska v1.4.0

    Видео
    Идентификатор : 1
    Формат : AVC
    Формат/Информация : Advanced Video Codec
    Профиль формата : High@L4.1
    Параметр CABAC формата : Да
    Параметр ReFrames формата : 7 кадров
    Идентификатор кодека : V_MPEG4/ISO/AVC
    Продолжительность : 1 ч. 45 м.
    Битрейт : 2059 Кбит/сек
    Ширина : 1040 пикселей
    Высота : 432 пикселя
    Соотношение сторон : 2,40:1
    Режим частоты кадров : Постоянный
    Частота кадров : 23,976 кадра/сек
    Цветовое пространство : YUV
    Субдискретизация насыщенности : 4:2:0
    Битовая глубина : 8 бит
    Тип развёртки : Прогрессивная
    Бит/(Пиксели*Кадры) : 0.191
    Размер потока : 1,47 Гбайт (68%)
    Библиотека кодирования : x264 core 130 r2273 b3065e6
    Настройки программы : cabac=1 / ref=7 / deblock=1:-1:-1 / analyse=0x3:0x133 / me=umh / subme=10 / psy=1 / psy_rd=1.00:0.15 / mixed_ref=0 / me_range=24 / chroma_me=1 / trellis=2 / 8x8dct=1 / cqm=0 / deadzone=21,11 / fast_pskip=0 / chroma_qp_offset=-3 / threads=3 / lookahead_threads=1 / sliced_threads=0 / nr=0 / decimate=1 / interlaced=0 / bluray_compat=0 / constrained_intra=0 / bframes=6 / b_pyramid=2 / b_adapt=2 / b_bias=0 / direct=3 / weightb=1 / open_gop=0 / weightp=2 / keyint=250 / keyint_min=23 / scenecut=40 / intra_refresh=0 / rc_lookahead=50 / rc=2pass / mbtree=1 / bitrate=2059 / ratetol=1.0 / qcomp=0.60 / qpmin=0 / qpmax=69 / qpstep=4 / cplxblur=20.0 / qblur=0.5 / ip_ratio=1.40 / aq=1:1.00
    Default : Да
    Forced : Нет

    Аудио #1
    Идентификатор : 2
    Формат : AC-3
    Формат/Информация : Audio Coding 3
    Расширение режима : CM (complete main)
    Параметр Endianness формата : Big
    Идентификатор кодека : A_AC3
    Продолжительность : 1 ч. 45 м.
    Вид битрейта : Постоянный
    Битрейт : 448 Кбит/сек
    Каналы : 6 каналов
    Расположение каналов : Front: L C R, Side: L R, LFE
    Частота : 48,0 КГц
    Битовая глубина : 16 бит
    Метод сжатия : С потерями
    Размер потока : 337 Мбайт (15%)
    Язык : Russian
    Default : Да
    Forced : Нет

    Аудио #2
    Идентификатор : 3
    Формат : AC-3
    Формат/Информация : Audio Coding 3
    Расширение режима : CM (complete main)
    Параметр Endianness формата : Big
    Идентификатор кодека : A_AC3
    Продолжительность : 1 ч. 45 м.
    Вид битрейта : Постоянный
    Битрейт : 448 Кбит/сек
    Каналы : 6 каналов
    Расположение каналов : Front: L C R, Side: L R, LFE
    Частота : 48,0 КГц
    Битовая глубина : 16 бит
    Метод сжатия : С потерями
    Размер потока : 337 Мбайт (15%)
    Язык : English
    Default : Нет
    Forced : Нет

    Текст #1
    Идентификатор : 4
    Формат : UTF-8
    Идентификатор кодека : S_TEXT/UTF8
    Идентификатор кодека/Информация : UTF-8 Plain Text
    Язык : Russian
    Default : Нет
    Forced : Нет

    Текст #2
    Идентификатор : 5
    Формат : UTF-8
    Идентификатор кодека : S_TEXT/UTF8
    Идентификатор кодека/Информация : UTF-8 Plain Text
    Язык : English
    Default : Нет
    Forced : Нет



    Скриншоты для ознакомления



    Релиз подготовил:
    Размер скачиваемого торрента: 2.17 GB (2334034853 Bytes)

    Госпожа горничная / Maid in Manhattan (2002) BDRip-AVC от RG Jolly Roger скачать через торрент бесплатно
    загрузка...
    Рейтинг →
     (голосов: 1, оценка 4/5, голосовать можно 1 раз )

    Другие торренты по теме:

  • Госпожа министр танцует / Pani minister tanczy (1937) TVRip | A
  • Госпожа Конспиратор / Заговорщица / Miss Conspirator / Misseu Go (2012) HDRip | L2
  • Госпожа Белладонна - Дискография (2012-2013) MP3
  • Госпожа кошек / The Cat Lady (2013) PC | Лицензия
  • Госпожа кошек / The Cat Lady (2013) PC | Repack от Sash HD
  • Госпожа следователь / Madame le juge (1978) TVRip скачать через торрент бесплатно
  • Сеньора Смерть / Госпожа Смерть / La seora Muerte / Madame Death (1969) DVDRip | L1 скачать через торрент бесплатно
  • Госпожа Дила / Dila Hanim (2014) TVRip | L1 скачать через торрент бесплатно


    • Комментарии (0):

      Информация

      Информация

        Посетители, находящиеся в группе Гости, не могут оставлять комментарии в данной новости.

        ↓ Меню



        ↓ Опрос

        А Вы добавили сайт в закладки?
        Да
        Не


        Top 10 за месяц (Фильмы)