.
Авторизация | Регистрация
Хочешь лучшие торренты? Добавь свой email!
Добавить
» » Взлётная полоса / La jetee (1962) BDRip by msltel | A скачать торрент бесплатно




    Взлётная полоса / La jetee (1962) BDRip by msltel | A скачать торрент бесплатно

    Опубликовал: Админ | Дата: 27-02-2015, 11:09 | Просмотров: 292



    Русское название: Взлётная полоса
    Русское название в мировом прокате: La jet?e
    Создали в: 1962
    Категория жанра: Короткометражный, фантастика, драма, мелодрама
    Снималось в: Франция, Argos Films
    Главный режиссер: Крис Маркер
    Актеры: Жан Негрони, Хелен Шателейн, Даво Аниш, Жак Леду, Андре Энриш, Жак Браншу, Пьер Джоффрой, Этьен Беккер, Фильберт фор Лифхиц, Лигия Бранице, Джанин Клейн, Уильям Кляйн, Германо Фассетти

    Сюжет фильма: После термоядерного удара третьей мировой войны оставшиеся в живых парижане живут в подземных катакомбах. Они предпринимают попытки путешествий во времени в надежде найти в будущем потомков и заполучить от них еду, медикаменты и энергетические установки во имя того, чтобы прошлое и будущее помогли настоящему. Почти весь фильм представляет собой последовательность фотографий.

    Качество фильма: BDRip
    Информация о видео: XviD, 1997 Кбит/с, 672x416
    Информация о звуке: Русский, английский (АС3, 1 ch, 192 Кбит/с)
    Размер скачиваемого торрента: 481 MБ
    Время просмотра: 00:28:07
    Перевод текста: Авторский (Антон Алексеев)
    Субтитры: Русские, английские

    Исходник: Ambulacetus (HDTracker)

    Сравнение с исходником



    MediaInfo
    Общее
    Полное имя : E:VideoVzletnaja.polosa.1962.XviD.BDRipVzletnaja.polosa.1962.eng.srt
    Размер файла : 31,1 Кбайт

    Общее
    Полное имя : E:VideoVzletnaja.polosa.1962.XviD.BDRipVzletnaja.polosa.1962.Original.eng.ac3
    Формат : AC-3
    Формат/Информация : Audio Coding 3
    Размер файла : 38,6 Мбайт
    Продолжительность : 28 м.
    Режим общего битрейта : Постоянный
    Общий поток : 192 Кбит/сек

    Аудио
    Формат : AC-3
    Формат/Информация : Audio Coding 3
    Расширение режима : CM (complete main)
    Параметр Endianness формата : Big
    Продолжительность : 28 м.
    Вид битрейта : Постоянный
    Битрейт : 192 Кбит/сек
    Каналы : 1 канал
    Расположение каналов : Front: C
    Частота : 48,0 КГц
    Битовая глубина : 16 бит
    Метод сжатия : С потерями
    Размер потока : 38,6 Мбайт (100%)

    Общее
    Полное имя : E:VideoVzletnaja.polosa.1962.XviD.BDRipVzletnaja.polosa.1962.rus.srt
    Размер файла : 30,7 Кбайт

    Общее
    Полное имя : E:VideoVzletnaja.polosa.1962.XviD.BDRipVzletnaja.polosa.1962.XviD.BDRip.avi
    Формат : AVI
    Формат/Информация : Audio Video Interleave
    Размер файла : 442 Мбайт
    Продолжительность : 28 м.
    Общий поток : 2198 Кбит/сек
    Программа кодирования : VirtualDubMod 1.5.10.2 (build 2540/release)
    Библиотека кодирования : VirtualDubMod build 2540/release

    Видео
    Идентификатор : 0
    Формат : MPEG-4 Visual
    Профиль формата : Advanced Simple@L5
    Параметр BVOP формата : 1
    Параметр QPel формата : Нет
    Параметр GMC формата : Без точки перехода
    Параметр матрицы формата : Default (H.263)
    Режим смешивания : Сжатый битовый поток
    Идентификатор кодека : XVID
    Идентификатор кодека/Подсказка : XviD
    Продолжительность : 28 м.
    Битрейт : 1997 Кбит/сек
    Ширина : 672 пикселя
    Высота : 416 пикселей
    Соотношение сторон : 16:10
    Частота кадров : 23,976 кадра/сек
    Цветовое пространство : YUV
    Субдискретизация насыщенности : 4:2:0
    Битовая глубина : 8 бит
    Тип развёртки : Прогрессивная
    Метод сжатия : С потерями
    Бит/(Пиксели*Кадры) : 0.298
    Размер потока : 402 Мбайт (91%)
    Библиотека кодирования : XviD 1.2.1 (UTC 2008-12-04)

    Аудио
    Идентификатор : 1
    Формат : AC-3
    Формат/Информация : Audio Coding 3
    Расширение режима : CM (complete main)
    Параметр Endianness формата : Big
    Идентификатор кодека : 2000
    Продолжительность : 28 м.
    Вид битрейта : Постоянный
    Битрейт : 192 Кбит/сек
    Каналы : 1 канал
    Расположение каналов : Front: C
    Частота : 48,0 КГц
    Битовая глубина : 16 бит
    Метод сжатия : С потерями
    Размер потока : 38,6 Мбайт (9%)
    Выравнивание : Разделение по промежуткам
    Продолжительность промежутка : 42 мс. (1,00 видеокадр)
    Время предзагрузки промежутка : 500 мс.
    Скриншоты для ознакомления



    Залил: msltel
    Размер скачиваемого торрента: 480.73 MB (504077362 Bytes)

    Взлётная полоса / La jetee (1962) BDRip by msltel | A торрент скачать бесплатно
    загрузка...
    Рейтинг →
     (голосов: 1, оценка 4/5, голосовать можно 1 раз )

    Другие торренты по теме:

  • Взлётная полоса / La jetee (1962) BDRip 720p by msltel | A скачать через торрент бесплатно


    • Комментарии (0):

      Информация

      Информация

        Посетители, находящиеся в группе Гости, не могут оставлять комментарии в данной новости.

        ↓ Меню



        ↓ Опрос

        А Вы добавили сайт в закладки?
        Да
        Не


        Top 10 за месяц (Фильмы)