.
Авторизация | Регистрация
Хочешь лучшие торренты? Добавь свой email!
Добавить
» » Паранормальное явление 4 / Paranormal Activity 4 (2012) HDRip от Deadmauvlad | D | Unrated Directors Cut скачать через торрент бесплатно




    Паранормальное явление 4 / Paranormal Activity 4 (2012) HDRip от Deadmauvlad | D | Unrated Directors Cut скачать через торрент бесплатно

    Опубликовал: Админ | Дата: 27-02-2015, 11:09 | Просмотров: 334


    Паранормальное явление 4 / Paranormal Activity 4 Unrated Director;s Cut





    Создали в: 2012
    Снималось в: США
    Категория жанра: Ужасы
    Время просмотра: 01:36:41
    Перевод текста: Дубляж (на расширенные места субтитры)
    Субтитры: Русские (Перевел Влад Кардаш Правка JekSoN Vika_35 субтитры) , Английские


    Главный режиссер: Генри Джуст / Henry Joost, Эриель Шульман / Ariel Schulman


    Актеры: Кэтрин Ньютон (Alex), Кэти Физерстон (Katie), Мэтт Шивли (Ben), Алексондра Ли (Holly), Стивен Данэм (Doug), Сара Морнелл (Debbie), Брэйди Аллен (Robbie), Эйден Лавкамп (Wyatt), Брэндон Хэйл Эггерсен (Derrick), Алиша Боэ (Alex;s Friend), Уильям Хуан Прието (Hunter)...


    Сюжет: Действие разворачивается спустя 5 лет с момента событий фильма Паранормальное явление 2. Алекс и её бойфренд борются с паранормальной активностью в их доме.







    Доп. информация:
    Данная версия длиннее обычной на 15 мин
    Перевод не полный на расширенные места предлагаю читать субтитры.

    Работа над релизом
    1) Спасибо нашему Перевод текстачику за перевод
    2) Правка субтитров JekSoN Vika_35 им тоже спасибо !
    3) Спасибо PublicHD за исходник
    4) ну и себе любимому за рип и идею создания релиза !
    5) Тайминг Deadmauvlad Влад Кардаш



    Качество фильма: HDRip
    Тип видео: MKV
    Информация о видео кодек: AVC
    Информация о звуке кодек: MP3
    Информация о видео: 640 x 352 (1.818) at 23.976 fps
    Информация о звуке 1 : MPEG Audio at 112 Кбит/сек Дубляж
    Информация о звуке 2: MPEG Audio at 96,0 Кбит/сек Оригинал


    MI
    Общее
    Уникальный идентификатор : 252849025293333078749735514971960486783 (0xBE38F36FA2673E80B6DCA37D2003AB7F)
    Полное имя : C:UsersDeadmauvladDesktopРелизы На выкладкуParanormal Activity 4.Unrated.Director;s Cut.D.HDRip.DeadmauvladParanormal Activity 4.Unrated.Director;s Cut.D.HDRip.Deadmauvlad.mkv
    Формат : Matroska
    Версия формата : Version 4 / Version 2
    Размер файла : 685 Мбайт
    Продолжительность : 1 ч. 38 м.
    Общий поток : 974 Кбит/сек
    Дата кодирования : UTC 2013-12-14 12:49:12
    Программа кодирования : mkvmerge v6.5.0 (;Isn;t she lovely;) built on Oct 20 2013 12:50:05
    Библиотека кодирования : libebml v1.3.0 libmatroska v1.4.1

    Видео
    Идентификатор : 1
    Формат : MPEG-4 Visual
    Профиль формата : Advanced Simple@L5
    Параметр BVOP формата : Да
    Параметр QPel формата : Нет
    Параметр GMC формата : Без точки перехода
    Параметр матрицы формата : Default (H.263)
    Идентификатор кодека : V_MS/VFW/FOURCC / XVID
    Идентификатор кодека/Подсказка : XviD
    Продолжительность : 1 ч. 38 м.
    Битрейт : 842 Кбит/сек
    Ширина : 640 пикселей
    Высота : 352 пикселя
    Соотношение сторон : 16:9
    Режим частоты кадров : Постоянный
    Частота кадров : 23,976 кадра/сек
    Цветовое пространство : YUV
    Субдискретизация насыщенности : 4:2:0
    Битовая глубина : 8 бит
    Тип развёртки : Прогрессивная
    Метод сжатия : С потерями
    Бит/(Пиксели*Кадры) : 0.156
    Размер потока : 592 Мбайт (87%)
    Заголовок : Паранормальное явление 4 / Paranormal Activity 4 Unrated Director;s Cut HDRip Deadmauvlad
    Библиотека кодирования : XviD 64
    Язык : Russian
    Default : Да
    Forced : Нет

    Аудио
    Идентификатор : 4
    Формат : MPEG Audio
    Версия формата : Version 1
    Профиль формата : Layer 3
    Режим : Joint stereo
    Расширение режима : MS Stereo
    Идентификатор кодека : A_MPEG/L3
    Идентификатор кодека/Подсказка : MP3
    Продолжительность : 1 ч. 38 м.
    Вид битрейта : Постоянный
    Битрейт : 112 Кбит/сек
    Каналы : 2 канала
    Частота : 48,0 КГц
    Метод сжатия : С потерями
    Размер потока : 78,7 Мбайт (12%)
    Заголовок : Дубляж Оригинал Монтаж Сведения Влад Кардаш Deadmauvlad
    Библиотека кодирования : LAME3.98.2
    Язык : Russian
    Default : Да
    Forced : Нет

    Текст #1
    Идентификатор : 2
    Формат : UTF-8
    Идентификатор кодека : S_TEXT/UTF8
    Идентификатор кодека/Информация : UTF-8 Plain Text
    Заголовок : Eng
    Язык : English
    Default : Нет
    Forced : Нет

    Текст #2
    Идентификатор : 3
    Формат : UTF-8
    Идентификатор кодека : S_TEXT/UTF8
    Идентификатор кодека/Информация : UTF-8 Plain Text
    Заголовок : Русские Перевод Влад Кардаш Правка JekSoN Vika_35
    Язык : Russian
    Default : Да
    Forced : Да

    Общее
    Полное имя : C:UsersDeadmauvladDesktopРелизы На выкладкуParanormal Activity 4.Unrated.Director;s Cut.D.HDRip.DeadmauvladParanormal Activity 4.Unrated.Director;s Cut.D.HDRip.Deadmauvlad.mp3
    Формат : MPEG Audio
    Размер файла : 66,4 Мбайт
    Продолжительность : 1 ч. 36 м.
    Режим общего битрейта : Постоянный
    Общий поток : 96,0 Кбит/сек
    Библиотека кодирования : LAME3.98.2

    Аудио
    Формат : MPEG Audio
    Версия формата : Version 1
    Профиль формата : Layer 3
    Режим : Joint stereo
    Расширение режима : MS Stereo
    Продолжительность : 1 ч. 36 м.
    Вид битрейта : Постоянный
    Битрейт : 96,0 Кбит/сек
    Каналы : 2 канала
    Частота : 48,0 КГц
    Метод сжатия : С потерями
    Размер потока : 66,4 Мбайт (100%)
    Библиотека кодирования : LAME3.98.2


    Скриншоты для ознакомления

    align=center /align



    Залил: DJ_V.K_TV
    Размер скачиваемого торрента: 750.93 MB (787410839 Bytes)

    Паранормальное явление 4 / Paranormal Activity 4 (2012) HDRip от Deadmauvlad | D | Unrated Directors Cut скачать через торрент бесплатно
    загрузка...
    Рейтинг →
     (голосов: 1, оценка 3/5, голосовать можно 1 раз )

    Другие торренты по теме:

  • Паранормальное явление / Paranormal Activity (2007) HDRip-AVC от ExKinoRay | D
  • Паранормальное явление 4 / Paranormal Activity 4 (2012) HDRip | UNRATED | Звук с CAMRip
  • Паранормальное явление: Метка Дьявола (2014) скачать через торрент бесплатно
  • Паранормальное явление 4 / Paranormal Activity 4 (2012) HDRip от Deadmauvlad | D | Unrated Directors Cut | USA Transfer
  • Паранормальное явление: Метка Дьявола / Paranormal Activity: The Marked Ones (2014) CAMRip скачать через торрент бесплатно
  • Паранормальное явление: Метка Дьявола / Paranormal Activity: The Marked Ones (2013) BDRip 720p | Чистый звук
  • Паранормальное явление: Метка Дьявола / Paranormal Activity: The Marked Ones (2013) HDRip | Чистый звук
  • Паранормальное явление: Метка Дьявола / Paranormal Activity: The Marked Ones (2013) HDRip | Звук c CAMRip


    • Комментарии (0):

      Информация

      Информация

        Посетители, находящиеся в группе Гости, не могут оставлять комментарии в данной новости.

        ↓ Меню



        ↓ Опрос

        А Вы добавили сайт в закладки?
        Да
        Не


        Top 10 за месяц (Фильмы)