.
Авторизация | Регистрация
Хочешь лучшие торренты? Добавь свой email!
Добавить
» » Последний шанс Харви / Last Chance Harvey (2008) BDRip by msltel | P, P2, A скачать через торрент бесплатно




    Последний шанс Харви / Last Chance Harvey (2008) BDRip by msltel | P, P2, A скачать через торрент бесплатно

    Опубликовал: Админ | Дата: 27-02-2015, 11:09 | Просмотров: 328



    Русское название: Последний шанс Харви
    Русское название в мировом прокате: Last Chance Harvey
    Создали в: 2008
    Категория жанра: Драма, мелодрама
    Снималось в: США, Overture Films, Process Productions
    Главный режиссер: Джоэл Хопкинс
    Актеры: Дастин Хоффман, Эмма Томпсон, Айлин Аткинз, Кэти Бэйкер, Лайан Бэлабэн, Джеймс Бролин, Ричард Шифф, Бронах Галлахер, Джереми Шеффилд, Дэниэл Лапейн, Патрик Балади, Адам Джеймс, Майкл Ландес, Кейт Харпер, Джэми Сивз, Анджела Гриффин, Алекс Эйвери, Тим Эхерн, Шарлотта Лукас, Надя Кэмерон-Блэйки, Ридиан Джонс, Крис Уилсон, Эллиот Ливи, Масато Камо, Кас Грэхэм, Марк Кемпнер

    Сюжет фильма: Харви одинок и уже не молод. Он живет в Нью-Йорке, зарабатывая на жизнь сочинением рекламных джинглов. Но однажды его размеренной и скучной жизни приходит конец. Прилетев в Лондон на свадьбу своей дочери, Харви неожиданно узнаёт, что на торжественной церемонии в качестве отца невесты выступит не он, а её отчим. Расстроенный и обиженный, Харви опаздывает на свой самолёт в Нью-Йорк. В баре аэропорта он встречает обаятельную женщину по имени Кейт, с которой его связывает очень многое, несмотря на то, что они даже не знакомы. Это последний шанс Харви…

    Качество фильма: BDRip
    Размер скачиваемого торрента: 2.04 ГБ
    Время просмотра: 01:33:03

    Информация о видео: XviD, 1576 Кбит/с, 720x304
    Информация о звуке 1: русский, 48 kHz, AC3, 6 ch, 448 kbps avg, Профессиональный многоголосый
    Информация о звуке 2: русский, 48 kHz, AC3, 2 ch, 192 kbps avg, Профессиональный двухголосый
    Информация о звуке 3: русский, 48 kHz, AC3, 6 ch, 448 kbps avg, Авторский, Юрий Сербин

    Внешние файлы
    Информация о звуке: английский, 48 kHz, AC3, 6 ch, 448 kbps avg, Оригинал
    Субтитры: русские
    Субтитры: английские

    Исходник: igorella87 (Кинозал)

    Сравнение с исходником



    Награды
    Золотой глобус, 2009 год
    Номинации (2):
    Лучшая мужская роль (комедия или мюзикл) (Дастин Хоффман)
    Лучшая женская роль (комедия или мюзикл) (Эмма Томпсон)
    MediaInfo
    Общее
    Полное имя : E:VideoPoslednij.shans.Harvi.2008.XviD.BDRipPoslednij.shans.Harvi.2008.eng.SDH.srt
    Размер файла : 185 Кбайт

    Общее
    Полное имя : E:VideoPoslednij.shans.Harvi.2008.XviD.BDRipPoslednij.shans.Harvi.2008.Original.eng.ac3
    Формат : AC-3
    Формат/Информация : Audio Coding 3
    Размер файла : 298 Мбайт
    Продолжительность : 1 ч. 33 м.
    Режим общего битрейта : Постоянный
    Общий поток : 448 Кбит/сек

    Аудио
    Формат : AC-3
    Формат/Информация : Audio Coding 3
    Расширение режима : CM (complete main)
    Параметр Endianness формата : Big
    Продолжительность : 1 ч. 33 м.
    Вид битрейта : Постоянный
    Битрейт : 448 Кбит/сек
    Каналы : 6 каналов
    Расположение каналов : Front: L C R, Side: L R, LFE
    Частота : 48,0 КГц
    Битовая глубина : 16 бит
    Метод сжатия : С потерями
    Размер потока : 298 Мбайт (100%)

    Общее
    Полное имя : E:VideoPoslednij.shans.Harvi.2008.XviD.BDRipPoslednij.shans.Harvi.2008.rus.Аnnаlitik.srt
    Размер файла : 160 Кбайт

    Общее
    Полное имя : E:VideoPoslednij.shans.Harvi.2008.XviD.BDRipPoslednij.shans.Harvi.2008.XviD.BDRip.avi
    Формат : AVI
    Формат/Информация : Audio Video Interleave
    Размер файла : 1,74 Гбайт
    Продолжительность : 1 ч. 33 м.
    Общий поток : 2683 Кбит/сек
    Программа кодирования : VirtualDubMod 1.5.10.2 (build 2540/release)
    Библиотека кодирования : VirtualDubMod build 2540/release

    Видео
    Идентификатор : 0
    Формат : MPEG-4 Visual
    Профиль формата : Advanced Simple@L5
    Параметр BVOP формата : 1
    Параметр QPel формата : Нет
    Параметр GMC формата : Без точки перехода
    Параметр матрицы формата : Default (H.263)
    Режим смешивания : Сжатый битовый поток
    Идентификатор кодека : XVID
    Идентификатор кодека/Подсказка : XviD
    Продолжительность : 1 ч. 33 м.
    Битрейт : 1576 Кбит/сек
    Ширина : 720 пикселей
    Высота : 304 пикселя
    Соотношение сторон : 2,35:1
    Частота кадров : 23,976 кадра/сек
    Цветовое пространство : YUV
    Субдискретизация насыщенности : 4:2:0
    Битовая глубина : 8 бит
    Тип развёртки : Прогрессивная
    Метод сжатия : С потерями
    Бит/(Пиксели*Кадры) : 0.300
    Размер потока : 1,02 Гбайт (59%)
    Библиотека кодирования : XviD 1.2.1 (UTC 2008-12-04)

    Аудио #1
    Идентификатор : 1
    Формат : AC-3
    Формат/Информация : Audio Coding 3
    Расширение режима : CM (complete main)
    Параметр Endianness формата : Big
    Идентификатор кодека : 2000
    Продолжительность : 1 ч. 33 м.
    Вид битрейта : Постоянный
    Битрейт : 448 Кбит/сек
    Каналы : 6 каналов
    Расположение каналов : Front: L C R, Side: L R, LFE
    Частота : 48,0 КГц
    Битовая глубина : 16 бит
    Метод сжатия : С потерями
    Размер потока : 298 Мбайт (17%)
    Выравнивание : Разделение по промежуткам
    Продолжительность промежутка : 42 мс. (1,00 видеокадр)
    Время предзагрузки промежутка : 500 мс.

    Аудио #2
    Идентификатор : 2
    Формат : AC-3
    Формат/Информация : Audio Coding 3
    Расширение режима : CM (complete main)
    Параметр Endianness формата : Big
    Идентификатор кодека : 2000
    Продолжительность : 1 ч. 33 м.
    Вид битрейта : Постоянный
    Битрейт : 192 Кбит/сек
    Каналы : 2 канала
    Расположение каналов : Front: L R
    Частота : 48,0 КГц
    Битовая глубина : 16 бит
    Метод сжатия : С потерями
    Размер потока : 128 Мбайт (7%)
    Выравнивание : Разделение по промежуткам
    Продолжительность промежутка : 42 мс. (1,00 видеокадр)
    Время предзагрузки промежутка : 500 мс.

    Аудио #3
    Идентификатор : 3
    Формат : AC-3
    Формат/Информация : Audio Coding 3
    Расширение режима : CM (complete main)
    Параметр Endianness формата : Big
    Идентификатор кодека : 2000
    Продолжительность : 1 ч. 33 м.
    Вид битрейта : Постоянный
    Битрейт : 448 Кбит/сек
    Каналы : 6 каналов
    Расположение каналов : Front: L C R, Side: L R, LFE
    Частота : 48,0 КГц
    Битовая глубина : 16 бит
    Метод сжатия : С потерями
    Размер потока : 298 Мбайт (17%)
    Выравнивание : Разделение по промежуткам
    Продолжительность промежутка : 42 мс. (1,00 видеокадр)
    Время предзагрузки промежутка : 500 мс.
    Скриншоты для ознакомления



    Залил: msltel
    Размер скачиваемого торрента: 2.04 GB (2185686270 Bytes)

    Последний шанс Харви / Last Chance Harvey (2008) BDRip by msltel | P, P2, A скачать через торрент бесплатно
    загрузка...
    Рейтинг →
     (голосов: 1, оценка 4/5, голосовать можно 1 раз )

    Другие торренты по теме:

  • Джон Гришэм - Последний шанс (2007) (2011) MP3
  • Чистосердечное признание. Последний шанс (2013) SATRip
  • Последний шанс Харви / Last Chance Harvey (2008) BDRip-AVC от Rulya74 скачать через торрент бесплатно
  • Последний шанс Харви / Last Chance Harvey (2008) BDRip 720p by msltel | P, P2, A
  • Последний шанс Харви / Last Chance Harvey (2008) BDRip 1080p by msltel | P, P2, A скачать через торрент бесплатно
  • Последний шанс скачать через торрент бесплатно
  • Последний шанс Харви / Last Chance Harvey (2008) BDRip 1080p | Р, Р2
  • Последний шанс Харви / Last Chance Harvey (2008) BDRip | А


    • Комментарии (0):

      Информация

      Информация

        Посетители, находящиеся в группе Гости, не могут оставлять комментарии в данной новости.

        ↓ Меню



        ↓ Опрос

        А Вы добавили сайт в закладки?
        Да
        Не


        Top 10 за месяц (Фильмы)