.
Авторизация | Регистрация
Хочешь лучшие торренты? Добавь свой email!
Добавить
» » Теневой заговор / Shadow Conspiracy (1996) WEB-DLRip от Leon-masl скачать через торрент бесплатно




    Теневой заговор / Shadow Conspiracy (1996) WEB-DLRip от Leon-masl скачать через торрент бесплатно

    Опубликовал: Админ | Дата: 27-02-2015, 11:09 | Просмотров: 300



    Детально о кино
    Русское название: Теневой заговор
    Русское название в мировом прокате: Shadow Conspiracy
    Создали в: 1996
    Категория жанра: Боевик, Триллер
    Главный режиссер: Джордж Пан Косматос / George P. Cosmatos
    Актеры: Чарли Шин /Charlie Sheen/, Линда Хэмилтон /Linda Hamilton/, Доналд Сазерленд /Donald Sutherland/,Реджиналд Дэвис /Reginald Davis/, Хенри Строзир /Henry Strozier/, Рамон Эстевес /Ramon Estevez/, Теодор Байкел /Theodore Bikel/, Стэнли Андерсон /Stanley Anderson/, Бобби Зайонг /Bobby Zajong/, Терри О;Куинн /Terry O;Quinn/, Том Куинн /Tom Quinn/, Кейси Биггс /Casey Biggs/, Чарлз Чиоффи /Charles Cioffi/, Николас Туртурро /Nicholas Turturro/

    Сюжет фильма:
    Президент, переизбранный на второй срок, готовится к радикальным изменениям и собирается произнести речь в конгрессе, написанную совместно с Бобби Бишопом (Чарли Шин), своим советником. Журналистка Аманда Гивенс (Линда Хэмилтон) также кое-что разнюхала о теневом заговоре. Профессиональный убийца убивает одного за другим людей, имеющих, очевидно, какие-либо данные об этой страшной тайне. Один из них, профессор Поченко, получает пулю в затылок и умирает буквально на руках у Бобби. Итак Бобби и Аманда становятся живыми мишенями - у них есть только 12 часов, чтобы выяснить, что стоит за этими кошмарными событиями, след от которых тянется на самые верхние эшелоны власти. Добротный, динамичный политический боевик с детективными переплетениями сюжета, который вам, наверняка, захочется самим распутать вместе с его героями. (Иванов М.)




    Снималось в: США
    Киностудия: Cinergi Pictures Entertainment Inc. Hollywood Pictures
    Время просмотра: 01:42:59
    Перевод текста: Профессиональный (двухголосый закадровый) от West Video

    Файл
    Кодек для видео: XviD
    Качество фильма: WEB-DLRip
    Информация о видео: 720x304, 23.976 fps, 1636 kbps
    Информация о звуке: 48 kHz, AC3, Front: L C R, Side: L R, LFE, ~ 384 kbps
    MI
    Общее
    Полное имя : Shadow.Conspiracy.1997.WEB-DLRip.avi
    Формат : AVI
    Формат/Информация : Audio Video Interleave
    Размер файла : 1,46 Гбайт
    Продолжительность : 1 ч. 42 м.
    Общий поток : 2029 Кбит/сек
    Программа кодирования : VirtualDubMod 1.5.10.3 | www.virtualdub-fr.org || (build 2550/release)
    Библиотека кодирования : VirtualDubMod build 2550/release

    Видео
    Идентификатор : 0
    Формат : MPEG-4 Visual
    Профиль формата : Advanced Simple@L5
    Параметр BVOP формата : 1
    Параметр QPel формата : Нет
    Параметр GMC формата : Без точки перехода
    Параметр матрицы формата : Выборочная
    Идентификатор кодека : XVID
    Идентификатор кодека/Подсказка : XviD
    Продолжительность : 1 ч. 42 м.
    Битрейт : 1636 Кбит/сек
    Ширина : 720 пикс.
    Высота : 304 пикс.
    Соотношение сторон : 2,35:1
    Частота кадров : 23,976 кадр/сек
    Цветовое пространство : YUV
    Подвыборка цветности : 4:2:0
    Битовая глубина : 8 бит
    Тип развёртки : Прогрессивная
    Метод сжатия : С потерями
    Бит/(Пиксели*Кадры) : 0.312
    Размер потока : 1,18 Гбайт (81%)
    Библиотека кодирования : XviD 73

    Аудио
    Идентификатор : 1
    Формат : AC-3
    Формат/Информация : Audio Coding 3
    Расширение режима : CM (complete main)
    Идентификатор кодека : 2000
    Продолжительность : 1 ч. 42 м.
    Вид битрейта : Постоянный
    Битрейт : 384 Кбит/сек
    Канал(ы) : 6 канала(ов)
    Расположение каналов : Front: L C R, Side: L R, LFE
    Частота : 48,0 КГц
    Битовая глубина : 16 бит
    Метод сжатия : С потерями
    Размер потока : 283 Мбайт (19%)
    Выравнивание : Разделение по промежуткам
    Продолжительность промежутка : 42 мс. (1,00 видеокадр)
    Время предзагрузки промежутка : 500 ms
    Скриншоты для ознакомления



    Релиз подготовил: Leon-masl
    Залил: leon-masl
    Размер скачиваемого торрента: 1.46 GB (1567088640 Bytes)

    Теневой заговор / Shadow Conspiracy (1996) WEB-DLRip от Leon-masl скачать через торрент бесплатно
    загрузка...
    Рейтинг →
     (голосов: 1, оценка 4/5, голосовать можно 1 раз )

    Другие торренты по теме:

  • Теневой заговор / Shadow Conspiracy (1997) WEB-DLRip 720p | A, P2
  • Теневой заговор / Shadow Conspiracy (1996) WEB-DLRip-AVC от k.e.n NNMClub | P, P2, A


    • Комментарии (0):

      Информация

      Информация

        Посетители, находящиеся в группе Гости, не могут оставлять комментарии в данной новости.

        ↓ Меню



        ↓ Опрос

        А Вы добавили сайт в закладки?
        Да
        Не


        Top 10 за месяц (Фильмы)