.
Авторизация | Регистрация
Хочешь лучшие торренты? Добавь свой email!
Добавить
» » Запятнанная репутация / The Human Stain (2003) BDRip by msltel | D, P2, A скачать торрент бесплатно




    Запятнанная репутация / The Human Stain (2003) BDRip by msltel | D, P2, A скачать торрент бесплатно

    Опубликовал: Админ | Дата: 27-02-2015, 11:09 | Просмотров: 267



    Русское название: Запятнанная репутация
    Русское название в мировом прокате: The Human Stain
    Создали в: 2003
    Категория жанра: Драма, мелодрама
    Снималось в: США, Германия, Франция, Cinepsilon, Cinerenta Medienbeteiligungs KG, Lakeshore Entertainment, Miramax Films, Stone Village Productions
    Главный режиссер: Роберт Бентон
    Актеры: Энтони Хопкинс, Николь Кидман, Эд Харрис, Гэри Синиз, Вентворт Миллер, Джасинда Бэрретт, Гарри Дж. Ленникс, Кларк Грегг, Анна Дивер Смит, Лизэн Митчел, Керри Вашингтон, Филлис Ньюман, Марго Мартиндейл, Рон Кэнада, Мили Авитал, Дэнни Бланко, Кристен Блевинс, Энн Дудек, Мими Кузык, Джон Финн, Джессика Уинтерстерн, Джефф Перри, Рик Снайдер, Дэнни Стоун, Вито Филлипо, Роберт Хигден, Власта Врана, Ричард Мэйв, Том Рэк, Билл Роуэт

    Сюжет фильма: Немолодой профессор более 50 лет скрывал от своих близких страшный секрет. Случайный роман с молодой служанкой становится толчком для расследования прошлой жизни. Грязные тайны прошедших дней врываются в настоящее, сметая всё на своём пути…

    Качество фильма: BDRip
    Информация о видео: XviD, 1577 Kбит/с, 720x304
    Информация о звуке: Русский, английский (AC3, 6 ch, 448 Кбит/с)
    Размер скачиваемого торрента: 2.88 ГБ
    Время просмотра: 01:47:46
    Перевод текста: Дублированный, профессиональный двухголосый (DDV), авторский (Евгений Рудой, Юрий Сербин)
    Субтитры: Русские, английские

    Исходник: igorella87 (Кинозал)

    Сравнение с исходником



    MediaInfo
    Общее
    Полное имя : E:VideoZapjatnannaja.reputacija.2003.XviD.BDRipZapjatnannaja.reputacija.2003.AVO.rus.Е.Рудой.ac3
    Формат : AC-3
    Формат/Информация : Audio Coding 3
    Размер файла : 345 Мбайт
    Продолжительность : 1 ч. 47 м.
    Режим общего битрейта : Постоянный
    Общий поток : 448 Кбит/сек

    Аудио
    Формат : AC-3
    Формат/Информация : Audio Coding 3
    Расширение режима : CM (complete main)
    Параметр Endianness формата : Big
    Продолжительность : 1 ч. 47 м.
    Вид битрейта : Постоянный
    Битрейт : 448 Кбит/сек
    Каналы : 6 каналов
    Расположение каналов : Front: L C R, Side: L R, LFE
    Частота : 48,0 КГц
    Битовая глубина : 16 бит
    Метод сжатия : С потерями
    Размер потока : 345 Мбайт (100%)

    Общее
    Полное имя : E:VideoZapjatnannaja.reputacija.2003.XviD.BDRipZapjatnannaja.reputacija.2003.AVO.rus.Ю.Сербин.ac3
    Формат : AC-3
    Формат/Информация : Audio Coding 3
    Размер файла : 345 Мбайт
    Продолжительность : 1 ч. 47 м.
    Режим общего битрейта : Постоянный
    Общий поток : 448 Кбит/сек

    Аудио
    Формат : AC-3
    Формат/Информация : Audio Coding 3
    Расширение режима : CM (complete main)
    Параметр Endianness формата : Big
    Продолжительность : 1 ч. 47 м.
    Вид битрейта : Постоянный
    Битрейт : 448 Кбит/сек
    Каналы : 6 каналов
    Расположение каналов : Front: L C R, Side: L R, LFE
    Частота : 48,0 КГц
    Битовая глубина : 16 бит
    Метод сжатия : С потерями
    Размер потока : 345 Мбайт (100%)

    Общее
    Полное имя : E:VideoZapjatnannaja.reputacija.2003.XviD.BDRipZapjatnannaja.reputacija.2003.eng.srt
    Размер файла : 177 Кбайт

    Общее
    Полное имя : E:VideoZapjatnannaja.reputacija.2003.XviD.BDRipZapjatnannaja.reputacija.2003.Original.eng.ac3
    Формат : AC-3
    Формат/Информация : Audio Coding 3
    Размер файла : 345 Мбайт
    Продолжительность : 1 ч. 47 м.
    Режим общего битрейта : Постоянный
    Общий поток : 448 Кбит/сек

    Аудио
    Формат : AC-3
    Формат/Информация : Audio Coding 3
    Расширение режима : CM (complete main)
    Параметр Endianness формата : Big
    Продолжительность : 1 ч. 47 м.
    Вид битрейта : Постоянный
    Битрейт : 448 Кбит/сек
    Каналы : 6 каналов
    Расположение каналов : Front: L C R, Side: L R, LFE
    Частота : 48,0 КГц
    Битовая глубина : 16 бит
    Метод сжатия : С потерями
    Размер потока : 345 Мбайт (100%)

    Общее
    Полное имя : E:VideoZapjatnannaja.reputacija.2003.XviD.BDRipZapjatnannaja.reputacija.2003.rus.srt
    Размер файла : 172 Кбайт

    Общее
    Полное имя : E:VideoZapjatnannaja.reputacija.2003.XviD.BDRipZapjatnannaja.reputacija.2003.XviD.BDRip.avi
    Формат : AVI
    Формат/Информация : Audio Video Interleave
    Размер файла : 1,87 Гбайт
    Продолжительность : 1 ч. 47 м.
    Общий поток : 2487 Кбит/сек
    Программа кодирования : VirtualDubMod 1.5.10.2 (build 2540/release)
    Библиотека кодирования : VirtualDubMod build 2540/release

    Видео
    Идентификатор : 0
    Формат : MPEG-4 Visual
    Профиль формата : Advanced Simple@L5
    Параметр BVOP формата : 1
    Параметр QPel формата : Нет
    Параметр GMC формата : Без точки перехода
    Параметр матрицы формата : Default (H.263)
    Режим смешивания : Сжатый битовый поток
    Идентификатор кодека : XVID
    Идентификатор кодека/Подсказка : XviD
    Продолжительность : 1 ч. 47 м.
    Битрейт : 1577 Кбит/сек
    Ширина : 720 пикселей
    Высота : 304 пикселя
    Соотношение сторон : 2,35:1
    Частота кадров : 23,976 кадра/сек
    Цветовое пространство : YUV
    Субдискретизация насыщенности : 4:2:0
    Битовая глубина : 8 бит
    Тип развёртки : Прогрессивная
    Метод сжатия : С потерями
    Бит/(Пиксели*Кадры) : 0.301
    Размер потока : 1,19 Гбайт (63%)
    Библиотека кодирования : XviD 1.2.1 (UTC 2008-12-04)

    Аудио #1
    Идентификатор : 1
    Формат : AC-3
    Формат/Информация : Audio Coding 3
    Расширение режима : CM (complete main)
    Параметр Endianness формата : Big
    Идентификатор кодека : 2000
    Продолжительность : 1 ч. 47 м.
    Вид битрейта : Постоянный
    Битрейт : 448 Кбит/сек
    Каналы : 6 каналов
    Расположение каналов : Front: L C R, Side: L R, LFE
    Частота : 48,0 КГц
    Битовая глубина : 16 бит
    Метод сжатия : С потерями
    Размер потока : 345 Мбайт (18%)
    Выравнивание : Разделение по промежуткам
    Продолжительность промежутка : 42 мс. (1,00 видеокадр)
    Время предзагрузки промежутка : 500 мс.

    Аудио #2
    Идентификатор : 2
    Формат : AC-3
    Формат/Информация : Audio Coding 3
    Расширение режима : CM (complete main)
    Параметр Endianness формата : Big
    Идентификатор кодека : 2000
    Продолжительность : 1 ч. 47 м.
    Вид битрейта : Постоянный
    Битрейт : 448 Кбит/сек
    Каналы : 6 каналов
    Расположение каналов : Front: L C R, Side: L R, LFE
    Частота : 48,0 КГц
    Битовая глубина : 16 бит
    Метод сжатия : С потерями
    Размер потока : 345 Мбайт (18%)
    Выравнивание : Разделение по промежуткам
    Продолжительность промежутка : 42 мс. (1,00 видеокадр)
    Время предзагрузки промежутка : 500 мс.
    Скриншоты для ознакомления



    Залил: msltel
    Размер скачиваемого торрента: 2.88 GB (3097125088 Bytes)

    Запятнанная репутация / The Human Stain (2003) BDRip by msltel | D, P2, A торрент скачать бесплатно
    загрузка...
    Рейтинг →
     (голосов: 1, оценка 4/5, голосовать можно 1 раз )

    Другие торренты по теме:

  • Запятнанная репутация / The Human Stain (2003) BDRip-AVC от Rulya74 скачать через торрент бесплатно
  • Запятнанная репутация / The Human Stain (2003) BDRip 720p by msltel | D, P2, A скачать через торрент бесплатно
  • Запятнанная репутация / The Human Stain (2003) BDRip 1080p by msltel | D, P2, A скачать через торрент бесплатно
  • Запятнанная репутация / The Human Stain (2003) HDRip от Scarabey | D скачать через торрент бесплатно
  • Запятнанная репутация / The Human Stain (2003) BDRip- AVC от MediaClub | D, P2, A
  • Запятнанная репутация / The Human Stain (2003) BDRip-AVC от New-Team | D


    • Комментарии (0):

      Информация

      Информация

        Посетители, находящиеся в группе Гости, не могут оставлять комментарии в данной новости.

        ↓ Меню



        ↓ Опрос

        А Вы добавили сайт в закладки?
        Да
        Не


        Top 10 за месяц (Фильмы)