.
Авторизация | Регистрация
Хочешь лучшие торренты? Добавь свой email!
Добавить
» » Пятницкий. Глава третья (2013) SATRip-AVC скачать через торрент бесплатно




    Пятницкий. Глава третья (2013) SATRip-AVC скачать через торрент бесплатно

    Опубликовал: Админ | Дата: 27-02-2015, 11:09 | Просмотров: 342



    Русское название в мировом прокате: Пятницкий
    Создали в: 2013
    Категория жанра: Детектив, криминал, драма
    Главный режиссер: Григорий Фёдоров, Мичислав Юзовский
    Актеры: Виктория Тарасова, Владислав Котлярский, Денис Рожков, Дмитрий Мазуров, Анна Липко, Антон Батырев, Георгий Тополага, Виктория Герасимова, Андрей Сорока, Антон Афанасьев, Сергей Гурьев, Павел Мисаилов, Сандра Элиава, Игорь Стам, Роман Гапанюк, Александр Бобров, Мария Рассказова, Степан Рожнов, Денис Жариков

    Сюжет: В новой главе героям Пятницкого придется самим выступить в роли палачей. Зиминой и ее товарищам предстоит убедиться в очередной раз: если существующие законы не позволяют добиться справедливости, их нужно переписать под себя. И теперь наши герои выбирают новый инструмент написания таких законов - голосование. Путем голосования они определяют судьбы тех или иных преступников, когда того требуют обстоятельства. Это еще больше сплачивает сотрудников Отдела, приближая их небольшую слаженную команду к настоящей анархической группе, которая контролирует целый район Москвы... Но действительно ли всем по душе и по плечу окажется их новая роль? Все ли будут готовы идти до конца за Зиминой, методы которой становятся все жестче и решительнее? Нет, разлад в коллективе неизбежен. Неизбежны и жертвы. На что будет готова пойти Зимина, чтобы сохранить друзей и поддержать мир и спокойствие на земле Пятницкого?

    Снималось в: Россия, Телекомпания Дикси-ТВ
    Время просмотра: 30 x ~ 00:45:00
    Язык: Русский

    Качество фильма: SATRip-AVC
    Информация о видео: MPEG-4 AVC, ~ 2350 Кбит/с, 720x572@1024x572
    Информация о звуке rus: AC3, 2 ch, 192 Кбит/с

    Инфо
    Полное имя : E:Pyatnitskiy-3.2013.tahiyPyatnetskiy.3.(01.Seriya).2013.tahiy.mkv
    Формат : Matroska
    Версия формата : Version 4 / Version 2
    Размер файла : 871 Мбайт
    Продолжительность : 44 м.
    Общий поток : 2751 Кбит/сек
    Название фильма : Пятницкий. Глава третья - = Rip by tahiy = -
    Дата кодирования : UTC 2013-12-10 16:26:09
    Программа кодирования : mkvmerge v6.5.0 (;Isn;t she lovely;) built on Oct 20 2013 12:50:05
    Библиотека кодирования : libebml v1.3.0 libmatroska v1.4.1

    Видео
    Идентификатор : 1
    Формат : AVC
    Формат/Информация : Advanced Video Codec
    Профиль формата : High@L4.1
    Параметр CABAC формата : Да
    Параметр ReFrames формата : 8 кадров
    Идентификатор кодека : V_MPEG4/ISO/AVC
    Продолжительность : 44 м.
    Битрейт : 2557 Кбит/сек
    Ширина : 720 пикселей
    Высота : 572 пикселя
    Соотношение сторон : 16:9
    Режим частоты кадров : Постоянный
    Частота кадров : 25,000 кадров/сек
    Цветовое пространство : YUV
    Субдискретизация насыщенности : 4:2:0
    Битовая глубина : 8 бит
    Тип развёртки : Прогрессивная
    Бит/(Пиксели*Кадры) : 0.248
    Размер потока : 793 Мбайт (91%)
    Заголовок : Пятницкий. Глава третья - = Rip by tahiy = -
    Библиотека кодирования : x264 core 130 r2273 b3065e6
    Настройки программы : cabac=1 / ref=8 / deblock=1:-2:-2 / analyse=0x3:0x113 / me=umh / subme=10 / psy=1 / psy_rd=1.00:0.20 / mixed_ref=1 / me_range=32 / chroma_me=1 / trellis=2 / 8x8dct=1 / cqm=0 / deadzone=21,11 / fast_pskip=0 / chroma_qp_offset=-3 / threads=6 / lookahead_threads=1 / sliced_threads=0 / nr=0 / decimate=0 / interlaced=0 / bluray_compat=0 / constrained_intra=0 / bframes=10 / b_pyramid=2 / b_adapt=2 / b_bias=0 / direct=3 / weightb=1 / open_gop=0 / weightp=2 / keyint=250 / keyint_min=25 / scenecut=40 / intra_refresh=0 / rc_lookahead=40 / rc=2pass / mbtree=0 / bitrate=2557 / ratetol=1.0 / qcomp=0.60 / qpmin=0 / qpmax=69 / qpstep=4 / cplxblur=20.0 / qblur=0.5 / vbv_maxrate=50000 / vbv_bufsize=62500 / nal_hrd=none / ip_ratio=1.40 / pb_ratio=1.30 / aq=1:1.00
    Язык : Russian
    Default : Да
    Forced : Нет

    Аудио
    Идентификатор : 2
    Формат : AC-3
    Формат/Информация : Audio Coding 3
    Расширение режима : CM (complete main)
    Параметр Endianness формата : Big
    Идентификатор кодека : A_AC3
    Продолжительность : 44 м.
    Вид битрейта : Постоянный
    Битрейт : 192 Кбит/сек
    Каналы : 2 канала
    Расположение каналов : Front: L R
    Частота : 48,0 КГц
    Битовая глубина : 16 бит
    Метод сжатия : С потерями
    Размер потока : 60,8 Мбайт (7%)
    Язык : Russian
    Default : Да
    Forced : Нет



    Размер скачиваемого торрента: 25.22 GB (27078494832 Bytes)

    Пятницкий. Глава третья (2013) SATRip-AVC скачать через торрент бесплатно
    загрузка...
    Рейтинг →
     (голосов: 1, оценка 5/5, голосовать можно 1 раз )

    Другие торренты по теме:

  • Пятницкий. Глава вторая (2012) DVB
  • Пятницкий. Глава вторая (2012) DVD9
  • Пятницкий. Глава третья (2013) SATRip от РиперАМ
  • Пятницкий. Глава третья (2013) SATRip | ANDROZZZ BigFANGroup
  • Пятницкий. Глава третья (2013) SATRip скачать через торрент бесплатно
  • Пятницкий. Глава третья (2013) SATRip от SANNYa скачать через торрент бесплатно
  • Пятницкий. Глава четвёртая (2014) SATRip от Files-x
  • Пятницкий. Глава четвертая (1-18 серии из 32)


    • Комментарии (0):

      Информация

      Информация

        Посетители, находящиеся в группе Гости, не могут оставлять комментарии в данной новости.

        ↓ Меню



        ↓ Опрос

        А Вы добавили сайт в закладки?
        Да
        Не


        Top 10 за месяц (Фильмы)