.
Авторизация | Регистрация
Хочешь лучшие торренты? Добавь свой email!
Добавить
» » Мачете убивает / Machete Kills (2013) BDRip 1080p | Лицензия скачать через торрент бесплатно




    Мачете убивает / Machete Kills (2013) BDRip 1080p | Лицензия скачать через торрент бесплатно

    Опубликовал: Админ | Дата: 27-02-2015, 11:09 | Просмотров: 309



    Детально о кино
    Русское название: Мачете убивает
    Русское название в мировом прокате: Machete Kills
    Создали в: 2013
    Категория жанра: Боевик, комедия
    Снималось в: США, Россия, Aldamisa Entertainment, 1821 Pictures, Quick Draw Productions
    Главный режиссер: Роберт Родригес
    Актеры: Дэнни Трехо, Мишель Родригес, София Вергара, Эмбер Хёрд, Леди Гага, Антонио Бандерас, Кьюба Гудинг мл., Джессика Альба, Демиан Бишир, Мэл Гибсон

    Сюжет фильма: Правительство США вербует Мачете для миссии, которую не под силу выполнить простому смертному. Мачете прорывается в Мексику, чтобы схватить безумного лидера карательного отряда и эксцентричного миллиардера, торгующего оружием, который, в свою очередь, лелеет мечту начать войну планетарного масштаба и запустить смертельно опасное оружие в космос. И только Мачете может предотвратить этот глобальный хаос.



    Файл
    Качество фильма: BDRip (1080p)
    Информация о видео: MPEG-4 AVC, 10000 Кбит/с, 1920x1036
    Информация о звуке: Русский (DTS, 6 ch, 1510 Кбит/с), (AC3, 6 ch, 640 Кбит/с)
    Размер скачиваемого торрента: 9.16 ГБ
    Время просмотра: 01:47:59
    Перевод текста: Дублированный лицензия
    MI
    ---Information 10.12.2013 3:11:49 x264 info: frame I:3384 Avg QP:16.07 size:177751
    ---Information 10.12.2013 3:11:49 x264 info: frame P:93391 Avg QP:18.58 size: 64897
    ---Information 10.12.2013 3:11:49 x264 info: frame B:58731 Avg QP:20.32 size: 24427

    Общее
    Уникальный идентификатор : 185205214405489072711623273822891279445 (0x8B553A1166AB46C39195AA80EFF80455)
    Полное имя : D:Machete.Kills.2013.1080p_CMEGRoup.mkv
    Формат : Matroska
    Версия формата : Version 2
    Размер файла : 9,16 Гбайт
    Продолжительность : 1 ч. 47 м.
    Общий поток : 12,1 Мбит/сек
    Название фильма : Release for CMEGRoup
    Дата кодирования : UTC 2013-12-10 04:21:52
    Программа кодирования : mkvmerge v6.3.0 (;You can;t stop me!;) built on Jun 28 2013 20:09:41
    Библиотека кодирования : libebml v1.3.0 libmatroska v1.4.0

    Видео
    Идентификатор : 1
    Формат : AVC
    Формат/Информация : Advanced Video Codec
    Профиль формата : High@L4.1
    Параметр CABAC формата : Да
    Параметр ReFrames формата : 4 кадра
    Идентификатор кодека : V_MPEG4/ISO/AVC
    Продолжительность : 1 ч. 47 м.
    Битрейт : 10000 Кбит/сек
    Ширина : 1920 пикселей
    Высота : 1036 пикселей
    Соотношение сторон : 1,85:1
    Режим частоты кадров : Постоянный
    Частота кадров : 24,000 кадра/сек
    Цветовое пространство : YUV
    Субдискретизация насыщенности : 4:2:0
    Битовая глубина : 8 бит
    Тип развёртки : Прогрессивная
    Бит/(Пиксели*Кадры) : 0.209
    Размер потока : 7,36 Гбайт (80%)
    Заголовок : Release for CMEGRoup
    Библиотека кодирования : x264 core 138 r2358 9e941d1
    Настройки программы : cabac=1 / ref=4 / deblock=1:-3:-3 / analyse=0x3:0x113 / me=umh / subme=11 / psy=1 / psy_rd=1.00:0.00 / mixed_ref=1 / me_range=32 / chroma_me=1 / trellis=2 / 8x8dct=1 / cqm=0 / deadzone=21,11 / fast_pskip=1 / chroma_qp_offset=-2 / threads=12 / lookahead_threads=1 / sliced_threads=0 / nr=0 / decimate=1 / interlaced=0 / bluray_compat=0 / constrained_intra=0 / bframes=5 / b_pyramid=2 / b_adapt=1 / b_bias=0 / direct=2 / weightb=1 / open_gop=0 / weightp=2 / keyint=240 / keyint_min=24 / scenecut=40 / intra_refresh=0 / rc_lookahead=40 / rc=2pass / mbtree=1 / bitrate=10000 / ratetol=1.0 / qcomp=0.60 / qpmin=10 / qpmax=51 / qpstep=4 / cplxblur=20.0 / qblur=0.5 / vbv_maxrate=62500 / vbv_bufsize=78125 / nal_hrd=none / ip_ratio=1.40 / aq=1:1.00
    Язык : English
    Default : Да
    Forced : Нет

    Аудио #1
    Идентификатор : 2
    Формат : DTS
    Формат/Информация : Digital Theater Systems
    Режим : 16
    Параметр Endianness формата : Big
    Идентификатор кодека : A_DTS
    Продолжительность : 1 ч. 47 м.
    Вид битрейта : Постоянный
    Битрейт : 1509 Кбит/сек
    Каналы : 6 каналов
    Расположение каналов : Front: L C R, Side: L R, LFE
    Частота : 48,0 КГц
    Битовая глубина : 16 бит
    Метод сжатия : С потерями
    Размер потока : 1,14 Гбайт (12%)
    Заголовок : DTS 5.1 @ 1536 kbps
    Язык : Russian
    Default : Да
    Forced : Нет

    Аудио #2
    Идентификатор : 3
    Формат : AC-3
    Формат/Информация : Audio Coding 3
    Расширение режима : CM (complete main)
    Параметр Endianness формата : Big
    Идентификатор кодека : A_AC3
    Продолжительность : 1 ч. 47 м.
    Вид битрейта : Постоянный
    Битрейт : 640 Кбит/сек
    Каналы : 6 каналов
    Расположение каналов : Front: L C R, Side: L R, LFE
    Частота : 48,0 КГц
    Битовая глубина : 16 бит
    Метод сжатия : С потерями
    Размер потока : 494 Мбайт (5%)
    Язык : Russian
    Default : Нет
    Forced : Нет

    Меню
    00:00:00.000 : ru:Chapter 1
    00:12:23.708 : ru:Chapter 2
    00:25:35.541 : ru:Chapter 3
    00:39:42.416 : ru:Chapter 4
    00:52:47.166 : ru:Chapter 5
    01:07:03.583 : ru:Chapter 6
    01:20:41.375 : ru:Chapter 7
    01:39:35.750 : ru:Chapter 8



    Скриншоты для ознакомления

    Релиз подготовил:
    Размер скачиваемого торрента: 9.16 GB (9839728650 Bytes)

    Мачете убивает / Machete Kills (2013) BDRip 1080p | Лицензия скачать через торрент бесплатно
    загрузка...
    Рейтинг →
     (голосов: 1, оценка 3/5, голосовать можно 1 раз )

    Другие торренты по теме:

  • Мачете убивает / Machete Kills (2013) HD 720p | L1
  • Мачете убивает (2013) скачать через торрент бесплатно
  • OST - Мачете убивает / Machete Kills (2013) MP3 скачать через торрент бесплатно
  • Мачете убивает / Machete Kills (2013) HDTVRip 720p | Звук с TS
  • Мачете убивает / Machete Kills (2013) HDTV 1080p | Звук с CAMRip
  • Мачете убивает / Machete Kills (2013) HDTVRip | Звук с TS
  • Мачете убивает / Machete Kills (2013) HDTVRip 720p | Чистый звук
  • Мачете убивает / Machete Kills (2013) HDTVRip | Чистый звук


    • Комментарии (0):

      Информация

      Информация

        Посетители, находящиеся в группе Гости, не могут оставлять комментарии в данной новости.

        ↓ Меню



        ↓ Опрос

        А Вы добавили сайт в закладки?
        Да
        Не


        Top 10 за месяц (Фильмы)