.
Авторизация | Регистрация
Хочешь лучшие торренты? Добавь свой email!
Добавить
» » Люди будущего / The Tomorrow People (2013) WEBRip-AVC | LostFilm скачать торрент бесплатно




    Люди будущего / The Tomorrow People (2013) WEBRip-AVC | LostFilm скачать торрент бесплатно

    Опубликовал: Админ | Дата: 27-02-2015, 11:09 | Просмотров: 315



    Детально о кино
    Русское название: Люди будущего
    Русское название в мировом прокате: The Tomorrow People
    Создали в: 2013
    Снималось в: США
    Категория жанра: фантастика, драма, боевик
    Главный режиссер: Дэнни Кэннон, Роберт Бэйли, Гай Норман Би
    Актеры: Робби Амелл, Бернадетт Бек, Пейтон Лист, Мадлен Манток, Люк Митчелл, Марк Пеллегрино, Стефано Вильябона, Аарон Йу, Сара Кларк, Питер Гринвуд

    Сюжет фильма: Стивен Джеймсон необычный подросток, хотя еще год назад он не подозревал о том, что с ним случится, сегодня он на перепутье между двух миров. Он слышит голоса, а по ночам телепортируется, не зная где проснется завтра. Ощущая бессилие и подозревая себя в сумасшествии, он прислушивается к одному из голосов, звучащих в его голове и таким образом находит других людей будущего - Джона, Кару и Рассела. Они новая генетически развитая раса, способная к телекинезу, телепортации и телепатии. За такими особенными людьми охотится военизированная группа ученых под названием Ультра. Они видят в людях будущего угрозу.

    Файл
    Качество фильма: WEBRip-AVC
    Информация о видео данные: AVI (DivX), 1024x576, 2000 kbps, 23.976 fps
    Информация о звуке данные: MPEG Layer 3, 2 ch, 128 kbps, 44.1 KHz
    Время просмотра: ~00:42:00
    Перевод текста: Профессиональный (многоголосый, закадровый) - LostFilm

    MediaInfo

    General
    Complete name : Люди будущего 01х01-08 (2013) WEBRip-AVC LostFilmЛюди будущего 01х01 (2013) WEBRip-AVC LostFilm.avi
    Format : AVI
    Format/Info : Audio Video Interleave
    File size : 657 MiB
    Duration : 42mn 55s
    Overall bit rate : 2 139 Kbps

    Video
    ID : 0
    Format : MPEG-4 Visual
    Format settings, BVOP : Yes
    Format settings, QPel : No
    Format settings, GMC : No warppoints
    Format settings, Matrix : Default (H.263)
    Codec ID : DX50
    Codec ID/Hint : DivX 5
    Duration : 42mn 55s
    Bit rate : 1 995 Kbps
    Width : 1 024 pixels
    Height : 576 pixels
    Display aspect ratio : 16:9
    Frame rate : 23.976 fps
    Color space : YUV
    Chroma subsampling : 4:2:0
    Bit depth : 8 bits
    Scan type : Progressive
    Compression mode : Lossy
    Bits/(Pixel*Frame) : 0.141
    Stream size : 612 MiB (93%)
    Writing library : Intel(R) MPEG-4 encoder based on Intel(R) IPP 6.1 build 137.206.1.137.763

    Audio
    ID : 1
    Format : MPEG Audio
    Format version : Version 1
    Format profile : Layer 3
    Mode : Joint stereo
    Mode extension : MS Stereo
    Codec ID : 55
    Codec ID/Hint : MP3
    Duration : 42mn 55s
    Bit rate mode : Constant
    Bit rate : 128 Kbps
    Channel count : 2 channels
    Sampling rate : 44.1 KHz
    Compression mode : Lossy
    Stream size : 39.3 MiB (6%)
    Alignment : Aligned on interleaves
    Interleave, duration : 26 ms (0.63 video frame)
    Writing library : LAME3.98

    Скриншоты для ознакомления



    Размер скачиваемого торрента: 5.11 GB (5487960690 Bytes)

    Люди будущего / The Tomorrow People (2013) WEBRip-AVC | LostFilm торрент скачать бесплатно
    загрузка...
    Рейтинг →
     (голосов: 1, оценка 5/5, голосовать можно 1 раз )

    Другие торренты по теме:

  • Тайные знаки. Странные явления. Люди будущего (2011) SATRip от Generalfilm
  • Люди Будущего / The Tomorrow People (2013) HDTV 720p | Kerob скачать через торрент бесплатно
  • Люди Будущего / The Tomorrow People (2013) HDTVRip | Kerob скачать через торрент бесплатно
  • Люди будущего / The Tomorrow People (2013) WEB-DL 1080р | BaibaKo
  • Люди будущего / The Tomorrow People (2013) WEB-DLRip 720р | BaibaKo
  • Люди будущего / The Tomorrow People (2013) WEB-DLRip | BaibaKo
  • Люди будущего / The Tomorrow People (2013) WEB-DLRip 720p | LostFilm
  • Люди будущего / The Tomorrow People (2013) WEB-DLRip | LostFilm


    • Комментарии (0):

      Информация

      Информация

        Посетители, находящиеся в группе Гости, не могут оставлять комментарии в данной новости.

        ↓ Меню



        ↓ Опрос

        А Вы добавили сайт в закладки?
        Да
        Не


        Top 10 за месяц (Фильмы)