.
Авторизация | Регистрация
Хочешь лучшие торренты? Добавь свой email!
Добавить
» » Мачете убивает / Machete Kills (2013) BDRip 720p | Лицензия скачать торрент бесплатно




    Мачете убивает / Machete Kills (2013) BDRip 720p | Лицензия скачать торрент бесплатно

    Опубликовал: Админ | Дата: 27-02-2015, 11:09 | Просмотров: 331



    Детально о кино
    Русское название: Мачете убивает
    Русское название в мировом прокате: Machete Kills
    Создали в: 2013
    Категория жанра: Боевик, комедия
    Снималось в: США, Россия, Aldamisa Entertainment, 1821 Pictures, Quick Draw Productions
    Главный режиссер: Роберт Родригес
    Актеры: Дэнни Трехо, Мишель Родригес, София Вергара, Эмбер Хёрд, Леди Гага, Антонио Бандерас, Кьюба Гудинг мл., Джессика Альба, Демиан Бишир, Мэл Гибсон

    Сюжет фильма: Правительство США вербует Мачете для миссии, которую не под силу выполнить простому смертному. Мачете прорывается в Мексику, чтобы схватить безумного лидера карательного отряда и эксцентричного миллиардера, торгующего оружием, который, в свою очередь, лелеет мечту начать войну планетарного масштаба и запустить смертельно опасное оружие в космос. И только Мачете может предотвратить этот глобальный хаос.



    Файл
    Качество фильма: BDRip (720p)
    Информация о видео: MPEG-4 AVC, 5494 Кбит/с, 1280x690
    Информация о звуке: DTS, 6 ch, 1510 Кбит/с
    Размер скачиваемого торрента: 5.39 ГБ
    Время просмотра: 01:47:59
    Перевод текста: Дублированный лицензия
    MI
    Общее
    Уникальный идентификатор : 174503510305823541393023621700923801258 (0x83482751AA60B1D785002F75C431BEAA)
    Полное имя : D:Machete.Kills.2013.720p.BluRay.RUS.HDCLUB.mkv
    Формат : Matroska
    Версия формата : Version 2
    Размер файла : 5,39 Гбайт
    Продолжительность : 1 ч. 47 м.
    Общий поток : 7145 Кбит/сек
    Название фильма : Release for HDCLUB
    Дата кодирования : UTC 2013-12-09 14:45:01
    Программа кодирования : mkvmerge v5.8.0 (;No Sleep / Pillow;) built on Sep 2 2012 15:37:04
    Библиотека кодирования : libebml v1.2.3 libmatroska v1.3.0

    Видео
    Идентификатор : 1
    Формат : AVC
    Формат/Информация : Advanced Video Codec
    Профиль формата : High@L4.1
    Параметр CABAC формата : Да
    Параметр ReFrames формата : 9 кадров
    Идентификатор кодека : V_MPEG4/ISO/AVC
    Продолжительность : 1 ч. 47 м.
    Битрейт : 5494 Кбит/сек
    Ширина : 1280 пикселей
    Высота : 690 пикселей
    Соотношение сторон : 1,85:1
    Режим частоты кадров : Постоянный
    Частота кадров : 24,000 кадра/сек
    Цветовое пространство : YUV
    Субдискретизация насыщенности : 4:2:0
    Битовая глубина : 8 бит
    Тип развёртки : Прогрессивная
    Бит/(Пиксели*Кадры) : 0.259
    Размер потока : 4,14 Гбайт (77%)
    Заголовок : Machete.Kills.2013.720p.BluRay.RUS.HDCLUB
    Библиотека кодирования : x264 core 140 r2377 40 929f149 tMod 8-bit@all X86_64
    Настройки программы : cabac=1 / ref=9 / deblock=1:-3:-3 / analyse=0x3:0x133 / me=umh / subme=11 / psy=1 / fade_compensate=0.00 / psy_rd=1.00:0.00 / mixed_ref=1 / me_range=48 / chroma_me=1 / trellis=2 / 8x8dct=1 / cqm=0 / deadzone=21,11 / fast_pskip=0 / chroma_qp_offset=-2 / threads=12 / lookahead_threads=2 / sliced_threads=0 / nr=0 / decimate=1 / interlaced=0 / bluray_compat=0 / constrained_intra=0 / fgo=0 / bframes=8 / b_pyramid=2 / b_adapt=2 / b_bias=0 / direct=1 / weightb=1 / open_gop=0 / weightp=2 / keyint=240 / keyint_min=24 / scenecut=40 / intra_refresh=0 / rc_lookahead=60 / rc=crf / mbtree=0 / crf=16.8000 / qcomp=0.60 / qpmin=0:0:0 / qpmax=69:69:69 / qpstep=4 / vbv_maxrate=50000 / vbv_bufsize=62500 / crf_max=0.0 / nal_hrd=none / filler=0 / ip_ratio=1.30 / pb_ratio=1.20 / aq=2:0.80 / aq-sensitivity=10.00 / aq-factor=1.00:1.00:1.00 / aq2=0 / aq3=0
    Язык : English
    Default : Да
    Forced : Нет

    Аудио
    Идентификатор : 2
    Формат : DTS
    Формат/Информация : Digital Theater Systems
    Режим : 16
    Параметр Endianness формата : Big
    Идентификатор кодека : A_DTS
    Продолжительность : 1 ч. 47 м.
    Вид битрейта : Постоянный
    Битрейт : 1509 Кбит/сек
    Каналы : 6 каналов
    Расположение каналов : Front: L C R, Side: L R, LFE
    Частота : 48,0 КГц
    Битовая глубина : 16 бит
    Метод сжатия : С потерями
    Размер потока : 1,14 Гбайт (21%)
    Заголовок : DTS 5.1 @ 1509 kbps - Dubbed BD RUS LPCM 5.1 -- DTS 5.1
    Язык : Russian
    Default : Да
    Forced : Нет

    Меню
    00:00:00.000 : ru:Chapter 1
    00:12:23.708 : ru:Chapter 2
    00:25:35.541 : ru:Chapter 3
    00:39:42.416 : ru:Chapter 4
    00:52:47.166 : ru:Chapter 5
    01:07:03.583 : ru:Chapter 6
    01:20:41.375 : ru:Chapter 7
    01:39:35.750 : ru:Chapter 8


    Скриншоты для ознакомления



    Релиз подготовил:
    Размер скачиваемого торрента: 5.39 GB (5787362472 Bytes)

    Мачете убивает / Machete Kills (2013) BDRip 720p | Лицензия торрент скачать бесплатно
    загрузка...
    Рейтинг →
     (голосов: 1, оценка 5/5, голосовать можно 1 раз )

    Другие торренты по теме:

  • Мачете убивает / Machete Kills (2013) HD 720p | L1
  • Мачете убивает (2013) скачать через торрент бесплатно
  • OST - Мачете убивает / Machete Kills (2013) MP3 скачать через торрент бесплатно
  • Мачете убивает / Machete Kills (2013) HDTVRip 720p | Звук с TS
  • Мачете убивает / Machete Kills (2013) HDTV 1080p | Звук с CAMRip
  • Мачете убивает / Machete Kills (2013) HDTVRip | Звук с TS
  • Мачете убивает / Machete Kills (2013) HDTVRip 720p | Чистый звук
  • Мачете убивает / Machete Kills (2013) HDTVRip | Чистый звук


    • Комментарии (0):

      Информация

      Информация

        Посетители, находящиеся в группе Гости, не могут оставлять комментарии в данной новости.

        ↓ Меню



        ↓ Опрос

        А Вы добавили сайт в закладки?
        Да
        Не


        Top 10 за месяц (Фильмы)