.
Авторизация | Регистрация
Хочешь лучшие торренты? Добавь свой email!
Добавить
» » Расследования Мердока / Murdoch Mysteries (2008) BDRip 720p от HDClub скачать через торрент бесплатно




    Расследования Мердока / Murdoch Mysteries (2008) BDRip 720p от HDClub скачать через торрент бесплатно

    Опубликовал: Админ | Дата: 27-02-2015, 11:09 | Просмотров: 303



    Детально о кино
    Русское название: Расследования Мердока
    Русское название в мировом прокате: Murdoch Mysteries
    Создали в: 2008
    Категория жанра: драма, криминал, детектив
    Главный режиссер: Харви Кросслэнд, Лори Линд, Кэл Кунс
    Актеры: Янник Биссон (Detective William Murdoch), Томас Крэйг (Inspector Thomas Brackenreid), Джонни Харрис (Constable George Crabtree), Хелен Джой (Dr. Julia Ogden), Лаклан Мёрдок (Constable Henry Higgins), Джорджина Рейли (Dr. Emily Grace), Джонатан Уоттон (Dr. Darcy Garland), Арвен Хампрейс (Margaret Brackenreid), Найджел Беннетт (Chief Constable Giles), Кристиан Бруун (Constable Slugger Jackson), Питер Стеббингс (James Pendrick), Питер Келеган (Terrance Meyers)

    Сюжет фильма:
    Конец 19-го века. На улицах Торонто происходят странные убийства. Детектив Уильям Мердок раскрывает их с помощью новой науки - криминалистики. У него есть союзник - судебный врач Джейн Огден. Ни юный возраст, ни хорошее воспитание, ни пышные юбки не мешают ей вскрывать трупы и проводить экспертизы.

    Список серий

    01: Power / Удар током
    02: Glass Ceiling / Стеклянный потолок
    03: The Knockdown / Нокаут
    04: Elementary, My Dear Murdoch / Элементарно, мой дорогой Мёрдок
    05: ;Til Death Do Us Part / Пока смерть не разлучит нас
    06: Let Loose the Dogs / Не буди лихо…
    07: Body Double / Последняя роль
    08: Still Waters / В тихом омуте
    09: Belly Speaker / Чревовещатель
    10: Child;s Play / Недетские игры
    11: Bad Medicine / Горькая пилюля
    12: The Prince and the Rebel / Принц и бунтарь
    13: The Annoying Red Planet / Эта назойливая красная планета

    Дополнительно

    Диски приобретены в рамках сервиса Копилка: Помоги с Blu-ray . Спонсоры: Кириллка.
    Русский звук взят с тв трансляции. По-видимому на российском телевидении транслировалась неполная версия сериала, поэтому на некоторых сериях в русской дорожке есть места без перевода.

    MI

    Общее
    Уникальный идентификатор : 244527203457164371034850856767717047701 (0xB7F639F120480D0D8B74D5E2CBAAFD95)
    Полное имя : Murdoch.Mysteries.S01.2008.720p.BluRay.HDCLUBMurdoch.Mysteries.S01E01.720p.BluRay.Rus.Ukr.Eng.HDCLUB.mkv
    Формат : Matroska
    Версия формата : Version 4 / Version 2
    Размер файла : 4,06 Гбайт
    Продолжительность : 47 м.
    Общий поток : 12,1 Мбит/сек
    Дата кодирования : UTC 2013-11-23 07:58:01
    Программа кодирования : mkvmerge v6.5.0 (;Isn;t she lovely;) built on Oct 20 2013 12:50:05
    Библиотека кодирования : libebml v1.3.0 libmatroska v1.4.1

    Видео
    Идентификатор : 1
    Формат : AVC
    Формат/Информация : Advanced Video Codec
    Профиль формата : High@L4.1
    Параметр CABAC формата : Да
    Параметр ReFrames формата : 9 кадров
    Идентификатор кодека : V_MPEG4/ISO/AVC
    Продолжительность : 47 м.
    Битрейт : 11,0 Мбит/сек
    Ширина : 1280 пикселей
    Высота : 720 пикселей
    Соотношение сторон : 16:9
    Режим частоты кадров : Постоянный
    Частота кадров : 24,000 кадра/сек
    Цветовое пространство : YUV
    Субдискретизация насыщенности : 4:2:0
    Битовая глубина : 8 бит
    Тип развёртки : Прогрессивная
    Бит/(Пиксели*Кадры) : 0.497
    Размер потока : 3,68 Гбайт (91%)
    Библиотека кодирования : x264 core 138 r2359 704 48 3f879a0 tMod 8-bit@4:2:0 X86
    Настройки программы : cabac=1 / ref=9 / deblock=1:-3:-3 / analyse=0x3:0x113 / me=umh / subme=10 / psy=1 / fade_compensate=0.00 / psy_rd=1.05:0.00 / mixed_ref=1 / me_range=32 / chroma_me=1 / trellis=2 / 8x8dct=1 / cqm=0 / deadzone=21,11 / fast_pskip=0 / chroma_qp_offset=-2 / threads=6 / lookahead_threads=1 / sliced_threads=0 / nr=0 / decimate=0 / interlaced=0 / bluray_compat=0 / constrained_intra=0 / fgo=0 / bframes=8 / b_pyramid=2 / b_adapt=2 / b_bias=0 / direct=3 / weightb=1 / open_gop=0 / weightp=2 / keyint=250 / keyint_min=23 / scenecut=40 / intra_refresh=0 / rc_lookahead=60 / rc=crf / mbtree=0 / crf=17.0000 / qcomp=0.65 / qpmin=0:0:0 / qpmax=69:69:69 / qpstep=4 / vbv_maxrate=50000 / vbv_bufsize=62500 / crf_max=0.0 / nal_hrd=none / ip_ratio=1.20 / pb_ratio=1.10 / aq=4:0.90 / aq-sensitivity=10.00 / aq-factor=1.00:1.00:1.00 / aq2=0 / aq3=0
    Язык : English
    Default : Да
    Forced : Нет

    Аудио #1
    Идентификатор : 2
    Формат : AC-3
    Формат/Информация : Audio Coding 3
    Расширение режима : CM (complete main)
    Параметр Endianness формата : Big
    Идентификатор кодека : A_AC3
    Продолжительность : 47 м.
    Вид битрейта : Постоянный
    Битрейт : 192 Кбит/сек
    Каналы : 2 канала
    Расположение каналов : Front: L R
    Частота : 48,0 КГц
    Битовая глубина : 16 бит
    Метод сжатия : С потерями
    Размер потока : 65,7 Мбайт (2%)
    Заголовок : Студия Селена Интернешнл @ DD 2.0
    Язык : Russian
    Default : Да
    Forced : Нет

    Аудио #2
    Идентификатор : 3
    Формат : AC-3
    Формат/Информация : Audio Coding 3
    Расширение режима : CM (complete main)
    Параметр Endianness формата : Big
    Идентификатор кодека : A_AC3
    Продолжительность : 47 м.
    Вид битрейта : Постоянный
    Битрейт : 192 Кбит/сек
    Каналы : 2 канала
    Расположение каналов : Front: L R
    Частота : 48,0 КГц
    Битовая глубина : 16 бит
    Метод сжатия : С потерями
    Размер потока : 65,7 Мбайт (2%)
    Заголовок : Телеканала СІТІ @ DD 2.0
    Язык : Ukrainian
    Default : Нет
    Forced : Нет

    Аудио #3
    Идентификатор : 4
    Формат : AC-3
    Формат/Информация : Audio Coding 3
    Расширение режима : CM (complete main)
    Параметр Endianness формата : Big
    Идентификатор кодека : A_AC3
    Продолжительность : 47 м.
    Вид битрейта : Постоянный
    Битрейт : 256 Кбит/сек
    Каналы : 2 канала
    Расположение каналов : Front: L R
    Частота : 48,0 КГц
    Битовая глубина : 16 бит
    Метод сжатия : С потерями
    Размер потока : 87,6 Мбайт (2%)
    Заголовок : Original @ DD 2.0
    Язык : English
    Default : Нет
    Forced : Нет

    Аудио #4
    Идентификатор : 5
    Формат : AC-3
    Формат/Информация : Audio Coding 3
    Расширение режима : CM (complete main)
    Параметр Endianness формата : Big
    Идентификатор кодека : A_AC3
    Продолжительность : 47 м.
    Вид битрейта : Постоянный
    Битрейт : 256 Кбит/сек
    Каналы : 2 канала
    Расположение каналов : Front: L R
    Частота : 48,0 КГц
    Битовая глубина : 16 бит
    Метод сжатия : С потерями
    Размер потока : 87,6 Мбайт (2%)
    Заголовок : Commentary
    Язык : English
    Default : Нет
    Forced : Нет

    Текст #1
    Идентификатор : 6
    Формат : UTF-8
    Идентификатор кодека : S_TEXT/UTF8
    Идентификатор кодека/Информация : UTF-8 Plain Text
    Язык : English
    Default : Нет
    Forced : Нет

    Текст #2
    Идентификатор : 7
    Формат : UTF-8
    Идентификатор кодека : S_TEXT/UTF8
    Идентификатор кодека/Информация : UTF-8 Plain Text
    Заголовок : SDH
    Язык : English
    Default : Нет
    Forced : Нет

    Меню
    00:00:00.000 : en:Execution
    00:07:27.917 : en:Discredit
    00:19:33.958 : en:Motive?
    00:26:26.000 : en:The Intended Victim
    00:36:22.375 : en:Another Electrocution
    00:42:58.667 : en:The Voice





    Снималось в: Канада, Великобритания
    Время просмотра: ~ 00:49:00
    Перевод текста: Профессиональный (многоголосый, закадровый) Селена Интернешнл

    Файл
    Кодек для видео: MPEG-4 AVC
    Качество фильма: BDRip 720p NTb
    Информация о видео: 1280x720 (16:9), 24.000 fps, ~11000 kbps, ~0.497 bit/pixel
    Информация о звуке:
    Аудио 1: Russian: 48 kHz, AC3, 2/0 (L,R) ch, ~192 kbps avg |Многоголосый закадровый, студия Селена Интернешн
    Аудио 2: Ukrainian: 48 kHz, AC3, 2/0 (L,R) ch, ~192 kbps avg |Двухголосый закадровый, студия телеканала СІ
    Аудио 3: English: 48 kHz, AC3, 2/0 (L,R) ch, ~256 kbps avg
    Аудио 4: English: 48 kHz, AC3, 2/0 (L,R) ch, ~256 kbps avg |Commentary for 1 episode|

    Субтитры: Английские

    Скриншоты для ознакомления






    by Vlad1k_H_
    Размер скачиваемого торрента: 55.53 GB (59623208061 Bytes)

    Расследования Мердока / Murdoch Mysteries (2008) BDRip 720p от HDClub скачать через торрент бесплатно
    загрузка...
    Рейтинг →
     (голосов: 1, оценка 4/5, голосовать можно 1 раз )

    Другие торренты по теме:

  • Расследования Мердока / Murdoch Mysteries (2012) HDTVRip | DreamRecords
  • Расследования Мердока / Murdoch Mysteries (2013) HDTVRip | DreamRecords
  • Расследования Мердока / Murdoch Mysteries (2004) DVDRip от Brazzass
  • Расследования Мердока / Murdoch Mysteries (2010) Blu-ray 1080p от HDClub
  • Расследования Мердока / Murdoch Mysteries (2009) Blu-ray 1080p от HDClub
  • Расследования Мердока / Murdoch Mysteries (2008) Blu-ray 1080p от HDClub
  • Расследования Мердока / Murdoch Mysteries (2009) BDRip 720p от HDClub
  • Расследования Мердока / Murdoch Mysteries (2010) BDRip 720p от HDClub скачать через торрент бесплатно


    • Комментарии (0):

      Информация

      Информация

        Посетители, находящиеся в группе Гости, не могут оставлять комментарии в данной новости.

        ↓ Меню



        ↓ Опрос

        А Вы добавили сайт в закладки?
        Да
        Не


        Top 10 за месяц (Фильмы)