.
Авторизация | Регистрация
Хочешь лучшие торренты? Добавь свой email!
Добавить
» » Лиллехаммер / Lilyhammer (2013) 720p | Ю.Сербин скачать через торрент бесплатно




    Лиллехаммер / Lilyhammer (2013) 720p | Ю.Сербин скачать через торрент бесплатно

    Опубликовал: Админ | Дата: 27-02-2015, 11:09 | Просмотров: 426



    Детально о кино
    Русское название: Лиллехаммер
    Русское название в мировом прокате: Lilyhammer
    Создали в: 2013
    Категория жанра: Драма, Комедия, Криминал
    Главный режиссер: Гер Хеннинг Хопланд, Симен Альсвик, Лиза Мари Гамлем
    Актеры: Стив Ван Зандт, Мариан Состад Оттесен, Тронд Феуса Эурвог, Анна Кригсволль, Стейнар Саген, Свен Нордин, Фридтьов Сохейм, Кюрре Хеллум, Финн Скеу, Тим Эйхерн

    Сюжет фильма:
    Фрэнк Тальяно (Стивен Ван Зандт) дает показания против своего босса - крупного мафиози. После этого бывший нью-йоркий гангстер, согласно программе защиты свидетелей, переезжает на постоянное место жительства в тихий норвежский городок Лиллехаммер. Френк называет его Лиллихэммером. Городок известен лишь тем, что в 1994 году принимал зимние Олимпийские Игры, но Френка это не беспокоит. Тальяно мечтает начать новую жизнь в местечке с чистым воздухом, белым снегом и привлекательными норвежскими женщинами, вдали от соблазнов Нью-Йорка и от карателей мафии. Но реальность оказывается совсем не такой. не такой, как мечты...




    Снималось в: США, Норвегия
    Киностудия: Rubicon TV AS / Парадайз / Активижен
    Время просмотра: 5x ~ 00:45:00
    Перевод текста: Авторский, одноголосый закадровый
    Автор рипа: Nez

    Файл
    Контейнер видео: TS
    Качество фильма: HDTV 720p
    Информация о видео: AVC, 1280x720 (16:9), 50.000 fps, 7 478 Kbps (0.162 bit/pixel)
    Информация о звуке:
    Аудио #1: AC-3, 48.0 KHz, 6 ch, 448 Kbps, CBR (Русский, авторский Ю.Сербин)
    Аудио #2: AC-3, 48.0 KHz, 6 ch, 448 Kbps, CBR (Норвежский)

    Скриншоты для ознакомления

    Медиаинфо:
    Скрытый текст

    General
    Format : MPEG-TS
    File size : 3.00 GiB
    Duration : 45mn 10s
    Overall bit rate mode : Variable
    Overall bit rate : 9 495 Kbps
    Maximum Overall bit rate : 35.5 Mbps

    Video
    ID : 4113 (0x1011)
    Menu ID : 1 (0x1)
    Format : AVC
    Format/Info : Advanced Video Codec
    Format profile : High@L4.1
    Format settings, CABAC : Yes
    Format settings, ReFrames : 4 frames
    Codec ID : 27
    Duration : 45mn 10s
    Bit rate mode : Variable
    Bit rate : 8 120 Kbps
    Maximum bit rate : 40.0 Mbps
    Width : 1 280 pixels
    Height : 720 pixels
    Display aspect ratio : 16:9
    Frame rate : 50.000 fps
    Color space : YUV
    Chroma subsampling : 4:2:0
    Bit depth : 8 bits
    Scan type : Progressive
    Bits/(Pixel*Frame) : 0.176
    Stream size : 2.56 GiB (86%)
    Color primaries : BT.709
    Transfer characteristics : BT.709
    Matrix coefficients : BT.709

    Audio #1
    ID : 4352 (0x1100)
    Menu ID : 1 (0x1)
    Format : AC-3
    Format/Info : Audio Coding 3
    Mode extension : CM (complete main)
    Format settings, Endianness : Big
    Codec ID : 129
    Duration : 45mn 10s
    Bit rate mode : Constant
    Bit rate : 448 Kbps
    Channel count : 6 channels
    Channel positions : Front: L C R, Side: L R, LFE
    Sampling rate : 48.0 KHz
    Bit depth : 16 bits
    Compression mode : Lossy
    Stream size : 145 MiB (5%)
    Language : Russian

    Audio #2
    ID : 4353 (0x1101)
    Menu ID : 1 (0x1)
    Format : AC-3
    Format/Info : Audio Coding 3
    Mode extension : CM (complete main)
    Format settings, Endianness : Big
    Codec ID : 129
    Duration : 45mn 10s
    Bit rate mode : Constant
    Bit rate : 448 Kbps
    Channel count : 2 channels
    Channel positions : Front: L R
    Sampling rate : 48.0 KHz
    Bit depth : 16 bits
    Compression mode : Lossy
    Stream size : 145 MiB (5%)
    Language : Norwegian


    Дополнительная информация:
    Скрытый текст
    Продолжение удачной криминальной драмы. Раньше американской премьеры на месяц!

    Перевод Ю.Сербина осуществлен в рамках сервиса Озвучивание. Спонсоры: HPotter, ClubMember, Vikachka, dementeb, SpartsDR, r3ap3r, rubak, demonx.

    Залил: ApolloOne
    Размер скачиваемого торрента: 14.08 GB (15117892536 Bytes)

    Лиллехаммер / Lilyhammer (2013) 720p | Ю.Сербин скачать через торрент бесплатно
    загрузка...
    Рейтинг →
     (голосов: 1, оценка 4/5, голосовать можно 1 раз )

    Другие торренты по теме:

  • Лиллехаммер / Lilyhammer (2012) WEB-DLRip-AVC | A
  • Лиллехаммер / Lilyhammer (2013) HDTVRip | Ю.Сербин скачать через торрент бесплатно
  • Лиллехаммер / Lilyhammer (2013) HDTV 720p | Ю.Сербин
  • Лиллехаммер / Lilyhammer (2013) HDTVRip | Amedia
  • Лиллехаммер / Lilyhammer (2012-2013) BDRip 720p от MediaClub | P, A скачать через торрент бесплатно
  • Лиллехаммер / Lilyhammer (2012-2013) BDRip | АРК-ТВ скачать через торрент бесплатно
  • Лиллехаммер / Lilyhammer (2014) HDTVRip | Сербин скачать через торрент бесплатно
  • Лиллехаммер / Lilyhammer (2014) HDTVRip 720p от HDClub | Сербин скачать через торрент бесплатно


    • Комментарии (0):

      Информация

      Информация

        Посетители, находящиеся в группе Гости, не могут оставлять комментарии в данной новости.

        ↓ Меню



        ↓ Опрос

        А Вы добавили сайт в закладки?
        Да
        Не


        Top 10 за месяц (Фильмы)