.
Авторизация | Регистрация
Хочешь лучшие торренты? Добавь свой email!
Добавить
» » Пипец 2 / Kick-Ass 2 (2013) BDRip 720p | Лицензия скачать через торрент бесплатно




    Пипец 2 / Kick-Ass 2 (2013) BDRip 720p | Лицензия скачать через торрент бесплатно

    Опубликовал: Админ | Дата: 27-02-2015, 11:09 | Просмотров: 228



    Детально о кино
    Русское название: Пипец 2
    Русское название в мировом прокате: Kick-Ass 2
    Создали в: 2013
    Категория жанра: Боевик, триллер, комедия, криминал
    Снималось в: США, Marv Films
    Главный режиссер: Джефф Уодлоу
    Актеры: Аарон Джонсон, Клои Грэйс Моретц, Кристофер Минц-Плассе, Джим Керри, Ольга Куркулина, Клаудия Ли, Джон Легуизамо, Линдси Фонсека, Дональд Фэйзон, Моррис Честнат, Кларк Дьюк, Линди Бут, Стивен Макинтош, Элла Пурнелла, Август Прю, Дэниэл Калуя

    Сюжет фильма: В реальной жизни не встретишь супергероя из комиксов, зато в ней есть настоящие герои. Харизматичный Пипец и гламурная Убивашка обрели новую команду поддержки во главе с Полковником Америка. Но кроме обычных мафиози, над городом нависает новая угроза — молодой мажор с очень дурным характером и целой армией отмороженных наемников.



    Файл
    Качество фильма: BDRip (720p)
    Информация о видео: MPEG-4 AVC, 6587 Кбит/с, 1280x534
    Информация о звуке: Русский (AC3, 6 ch, 448 Кбит/с), (DTS, 6 ch, 768 Кбит/с), английский (DTS, 6 ch, 1510 Кбит/с), (AC3, 2 ch, 192 Кбит/с)
    Размер скачиваемого торрента: 6.98 ГБ
    Время просмотра: 01:43:00
    Перевод текста: Дублированный лицензия / BD CEE
    Субтитры: Русские, английские
    MI
    Общее
    Уникальный идентификатор : 208215255351091478824598817234966951494 (0x9CA4CCAD12C8EC40A9DE5188CB363646)
    Полное имя : D:Kick.Ass.2.2013.720p.BluRay.DTS.x264-DON.Rus.Eng.bog3417.mkv
    Формат : Matroska
    Версия формата : Version 2
    Размер файла : 6,98 Гбайт
    Продолжительность : 1 ч. 43 м.
    Общий поток : 9697 Кбит/сек
    Название фильма : Kick-Ass 2 (2013) | Rip by DON
    Дата кодирования : UTC 2013-12-08 04:34:06
    Программа кодирования : mkvmerge v6.3.0 (;You can;t stop me!;) built on Jun 28 2013 20:09:41
    Библиотека кодирования : libebml v1.3.0 libmatroska v1.4.0

    Видео
    Идентификатор : 1
    Формат : AVC
    Формат/Информация : Advanced Video Codec
    Профиль формата : High@L4.1
    Параметр CABAC формата : Да
    Параметр ReFrames формата : 9 кадров
    Идентификатор кодека : V_MPEG4/ISO/AVC
    Продолжительность : 1 ч. 43 м.
    Битрейт : 6587 Кбит/сек
    Ширина : 1280 пикселей
    Высота : 534 пикселя
    Соотношение сторон : 2,40:1
    Режим частоты кадров : Постоянный
    Частота кадров : 23,976 кадра/сек
    Цветовое пространство : YUV
    Субдискретизация насыщенности : 4:2:0
    Битовая глубина : 8 бит
    Тип развёртки : Прогрессивная
    Бит/(Пиксели*Кадры) : 0.402
    Размер потока : 4,74 Гбайт (68%)
    Заголовок : Kick-Ass 2 (2013) by bog3417
    Библиотека кодирования : x264 core 140 r2377 40 929f149 tMod 8-bit@4:2:0 X86
    Настройки программы : cabac=1 / ref=9 / deblock=1:-3:-3 / analyse=0x3:0x113 / me=tesa / subme=10 / psy=1 / fade_compensate=0.00 / psy_rd=1.05:0.00 / mixed_ref=1 / me_range=24 / chroma_me=1 / trellis=2 / 8x8dct=1 / cqm=0 / deadzone=21,11 / fast_pskip=0 / chroma_qp_offset=-2 / threads=12 / lookahead_threads=2 / sliced_threads=0 / nr=0 / decimate=0 / interlaced=0 / bluray_compat=0 / constrained_intra=0 / fgo=0 / bframes=7 / b_pyramid=2 / b_adapt=2 / b_bias=0 / direct=3 / weightb=1 / open_gop=0 / weightp=2 / keyint=250 / keyint_min=23 / scenecut=40 / intra_refresh=0 / rc=crf / mbtree=0 / crf=16.0000 / qcomp=0.75 / qpmin=0:0:0 / qpmax=69:69:69 / qpstep=4 / ip_ratio=1.40 / pb_ratio=1.10 / aq=4:0.75 / aq-sensitivity=10.00 / aq-factor=1.00:1.00:1.00 / aq2=0 / aq3=0
    Язык : English
    Default : Да
    Forced : Нет

    Аудио #1
    Идентификатор : 2
    Формат : DTS
    Формат/Информация : Digital Theater Systems
    Режим : 16
    Параметр Endianness формата : Big
    Идентификатор кодека : A_DTS
    Продолжительность : 1 ч. 43 м.
    Вид битрейта : Постоянный
    Битрейт : 768 Кбит/сек
    Каналы : 6 каналов
    Расположение каналов : Front: L C R, Side: L R, LFE
    Частота : 48,0 КГц
    Битовая глубина : 24 бит
    Метод сжатия : С потерями
    Размер потока : 566 Мбайт (8%)
    Заголовок : DTS 5.1 - 768 kbps |Дубляж, BD CEE|
    Язык : Russian
    Default : Да
    Forced : Нет

    Аудио #2
    Идентификатор : 3
    Формат : AC-3
    Формат/Информация : Audio Coding 3
    Расширение режима : CM (complete main)
    Параметр Endianness формата : Big
    Идентификатор кодека : A_AC3
    Продолжительность : 1 ч. 43 м.
    Вид битрейта : Постоянный
    Битрейт : 448 Кбит/сек
    Каналы : 6 каналов
    Расположение каналов : Front: L C R, Side: L R, LFE
    Частота : 48,0 КГц
    Битовая глубина : 16 бит
    Метод сжатия : С потерями
    Размер потока : 330 Мбайт (5%)
    Заголовок : DD 5.1 - 448 kbps |Дубляж, BD CEE|
    Язык : Russian
    Default : Нет
    Forced : Нет

    Аудио #3
    Идентификатор : 4
    Формат : DTS
    Формат/Информация : Digital Theater Systems
    Режим : 16
    Параметр Endianness формата : Big
    Идентификатор кодека : A_DTS
    Продолжительность : 1 ч. 43 м.
    Вид битрейта : Постоянный
    Битрейт : 1509 Кбит/сек
    Каналы : 6 каналов
    Расположение каналов : Front: L C R, Side: L R, LFE
    Частота : 48,0 КГц
    Битовая глубина : 24 бит
    Метод сжатия : С потерями
    Размер потока : 1,09 Гбайт (16%)
    Заголовок : DTS 5.1 - 1509 kbps |Оригинал|
    Язык : English
    Default : Нет
    Forced : Нет

    Аудио #4
    Идентификатор : 5
    Формат : AC-3
    Формат/Информация : Audio Coding 3
    Профиль формата : Dolby Digital
    Расширение режима : CM (complete main)
    Параметр Endianness формата : Big
    Идентификатор кодека : A_AC3
    Продолжительность : 1 ч. 43 м.
    Вид битрейта : Постоянный
    Битрейт : 192 Кбит/сек
    Каналы : 2 канала
    Расположение каналов : Front: L R
    Частота : 48,0 КГц
    Битовая глубина : 16 бит
    Метод сжатия : С потерями
    Размер потока : 141 Мбайт (2%)
    Заголовок : DD 2.0 - 192 kbps |Комментарии|
    Язык : English
    Default : Нет
    Forced : Нет

    Текст #1
    Идентификатор : 6
    Формат : UTF-8
    Идентификатор кодека : S_TEXT/UTF8
    Идентификатор кодека/Информация : UTF-8 Plain Text
    Заголовок : Forsed
    Язык : Russian
    Default : Да
    Forced : Нет

    Текст #2
    Идентификатор : 7
    Формат : UTF-8
    Идентификатор кодека : S_TEXT/UTF8
    Идентификатор кодека/Информация : UTF-8 Plain Text
    Язык : Russian
    Default : Нет
    Forced : Нет

    Текст #3
    Идентификатор : 8
    Формат : UTF-8
    Идентификатор кодека : S_TEXT/UTF8
    Идентификатор кодека/Информация : UTF-8 Plain Text
    Язык : English
    Default : Нет
    Forced : Нет

    Меню
    00:00:00.000 : en:00:00:00.000
    00:05:58.191 : en:00:05:58.191
    00:10:37.929 : en:00:10:37.929
    00:14:08.306 : en:00:14:08.306
    00:19:11.108 : en:00:19:11.108
    00:23:11.348 : en:00:23:11.348
    00:30:20.444 : en:00:30:20.444
    00:35:25.498 : en:00:35:25.498
    00:40:13.786 : en:00:40:13.786
    00:45:37.193 : en:00:45:37.193
    00:52:35.778 : en:00:52:35.778
    00:58:02.396 : en:00:58:02.396
    01:00:37.843 : en:01:00:37.843
    01:05:36.099 : en:01:05:36.099
    01:09:57.944 : en:01:09:57.944
    01:15:56.343 : en:01:15:56.343
    01:21:05.486 : en:01:21:05.486
    01:23:32.549 : en:01:23:32.549
    01:33:05.538 : en:01:33:05.538
    01:36:38.251 : en:01:36:38.251

    Скриншоты для ознакомления



    Размер скачиваемого торрента: 6.98 GB (7491211623 Bytes)

    Пипец 2 / Kick-Ass 2 (2013) BDRip 720p | Лицензия скачать через торрент бесплатно
    загрузка...
    Рейтинг →
     (голосов: 1, оценка 4/5, голосовать можно 1 раз )

    Другие торренты по теме:

  • Пипец 2 / Kick-Ass 2 (2013) HD 1080p | Трейлер
  • Пипец-2 / Kick-Ass 2 (2013) WEBRip 720p | L1
  • Пипец-2 / Kick-Ass 2 (2013) WEBRip | L1
  • Пипец 2 / Kick-Ass 2 (2013) WEBRip | D | Звук с TS
  • Пипец 2 / Kick-Ass 2 (2013) WEBD-LRip | iTunes скачать через торрент бесплатно
  • Пипец 2 / Kick-Ass 2 (2013) WEB-DL 720p | iTunes скачать через торрент бесплатно
  • Пипец 2 / Kick-Ass 2 (2013) WEB-DLRip от Scarabey | iTunes
  • Пипец 2 / Kick-Ass 2 (2013) WEB-DLRip | iTunes


    • Комментарии (0):

      Информация

      Информация

        Посетители, находящиеся в группе Гости, не могут оставлять комментарии в данной новости.

        ↓ Меню



        ↓ Опрос

        А Вы добавили сайт в закладки?
        Да
        Не


        Top 10 за месяц (Фильмы)