.
Авторизация | Регистрация
Хочешь лучшие торренты? Добавь свой email!
Добавить
» » В поисках галактики / Galaxy Quest (1999) BDRemux 1080p от ExKinoRay | Р, А скачать через торрент бесплатно




    В поисках галактики / Galaxy Quest (1999) BDRemux 1080p от ExKinoRay | Р, А скачать через торрент бесплатно

    Опубликовал: Админ | Дата: 27-02-2015, 11:09 | Просмотров: 274



    Детально о кино

    Русское название: В поисках Галактики
    Русское название в мировом прокате: Galaxy Quest
    Создали в: 1999
    Категория жанра: Фантастика, комедия, приключения
    Снималось в: США, DreamWorks SKG, Gran Via
    Главный режиссер: Дин Паризо
    Актеры: Тим Аллен, Сигурни Уивер, Алан Рикман, Тони Шэлоуб, Сэм Рокуэлл, Дэрил Митчелл


    Сюжет фильма: Вся Америка усаживалась к телеэкранам, когда начинался любимый зрителями сериал В поисках Галактики. Герои этой фантастической саги были воистину народными героями. Но прошли годы, и сериал надоел телевизионным боссам. В поисках Галактики закрыли, а труппу распустили на все четыре стороны. Безработные бедолаги - актеры, исполнявшие главные роли героев - астронавтов, вынуждены были колесить по всей Америке, выступая на встречах с поклонниками за гроши. В общем, дела у бывших звезд обстояли, мягко говоря, весьма скверно... И вот однажды на один из таких творческих вечеров заглянули самые что ни на есть настоящие инопланетяне! Пришельцы были давно убеждены, что несчастные актеры - истинные борцы с вселенским злом, и именно от них зависит судьба Галактики. Инопланетяне выкрадывают актеров, которым теперь предстоит вернуть свой звездный статус в реальной схватке с космическими злодеями!





    Файл

    Качество фильма: Blu-Ray Remux (1080p)
    Информация о видео: MPEG-4 AVC, 33779 Кбит/с, 1920x1080, 23.976 кадр/с
    Информация о звуке: Русский (AC3, 2 ch, 192 Кбит/с), (AC3, 6 ch, 448 Кбит/с), (AC3, 6 ch, 640 Кбит/с), английский (TrueHD, 6 ch, 5148 Кбит/с)
    Размер скачиваемого торрента: 27.51 ГБ
    Время просмотра: 01:42:08
    Перевод текста: Профессиональный многоголосый, авторский
    Субтитры: Русские, английские


    Аудио1: Профессиональный многоголосый закадровый (Лицензия DVD R5)
    Аудио2: Профессиональный многоголосый закадровый (ОРТ)
    Аудио3: Авторский одноголосый (Живов)

    За исходник, огромное спасибо Voland_
    Сохранены оригинальные чаптеры как на Blu-Ray


    Инфо-файл

    Общее
    Уникальный идентификатор : 247741493585680271398641769681075777810 (0xBA6146AE40BCFBC6925990C5E4FB3112)
    Полное имя : C:ЗагрузкиGalaxy.Quest.1999.BDRemux.(1080p.)ExKinoRay.mkv
    Формат : Matroska
    Версия формата : Version 2
    Размер файла : 27,5 Гбайт
    Продолжительность : 1 ч. 42 м.
    Режим общего битрейта : Переменный
    Общий поток : 38,6 Мбит/сек
    Название фильма : В поисках галактики.1999.Сборка: ollan
    Дата кодирования : UTC 2013-12-08 11:29:00
    Программа кодирования : mkvmerge v5.6.0 (;Kenya Kane;) built on May 27 2012 16:44:04
    Библиотека кодирования : libebml v1.2.3 libmatroska v1.3.0

    Видео
    Идентификатор : 1
    Формат : AVC
    Формат/Информация : Advanced Video Codec
    Профиль формата : High@L4.1
    Параметр CABAC формата : Да
    Параметр ReFrames формата : 4 кадра
    Идентификатор кодека : V_MPEG4/ISO/AVC
    Продолжительность : 1 ч. 42 м.
    Вид битрейта : Переменный
    Максимальный битрейт : 35,0 Мбит/сек
    Ширина : 1920 пикселей
    Высота : 1080 пикселей
    Соотношение сторон : 16:9
    Режим частоты кадров : Постоянный
    Частота кадров : 23,976 кадра/сек
    Цветовое пространство : YUV
    Субдискретизация насыщенности : 4:2:0
    Битовая глубина : 8 бит
    Тип развёртки : Прогрессивная
    Default : Да
    Forced : Нет
    Основные цвета : BT.709
    Характеристики трансфера : BT.709
    Коэффициенты матрицы : BT.709

    Аудио #1
    Идентификатор : 2
    Формат : AC-3
    Формат/Информация : Audio Coding 3
    Расширение режима : CM (complete main)
    Параметр Endianness формата : Big
    Идентификатор кодека : A_AC3
    Продолжительность : 1 ч. 42 м.
    Вид битрейта : Постоянный
    Битрейт : 448 Кбит/сек
    Каналы : 6 каналов
    Расположение каналов : Front: L C R, Side: L R, LFE
    Частота : 48,0 КГц
    Битовая глубина : 16 бит
    Метод сжатия : С потерями
    Размер потока : 327 Мбайт (1%)
    Заголовок : Профессиональный многоголосый (Лицензия DVD R5)
    Язык : Russian
    Default : Да
    Forced : Да

    Аудио #2
    Идентификатор : 3
    Формат : AC-3
    Формат/Информация : Audio Coding 3
    Расширение режима : CM (complete main)
    Параметр Endianness формата : Big
    Идентификатор кодека : A_AC3
    Продолжительность : 1 ч. 42 м.
    Вид битрейта : Постоянный
    Битрейт : 192 Кбит/сек
    Каналы : 2 канала
    Расположение каналов : Front: L R
    Частота : 48,0 КГц
    Битовая глубина : 16 бит
    Метод сжатия : С потерями
    Размер потока : 140 Мбайт (0%)
    Заголовок : Профессиональный многоголосый (ОРТ)
    Язык : Russian
    Default : Нет
    Forced : Нет

    Аудио #3
    Идентификатор : 4
    Формат : AC-3
    Формат/Информация : Audio Coding 3
    Расширение режима : CM (complete main)
    Параметр Endianness формата : Big
    Идентификатор кодека : A_AC3
    Продолжительность : 1 ч. 42 м.
    Вид битрейта : Постоянный
    Битрейт : 640 Кбит/сек
    Каналы : 6 каналов
    Расположение каналов : Front: L C R, Side: L R, LFE
    Частота : 48,0 КГц
    Битовая глубина : 16 бит
    Метод сжатия : С потерями
    Размер потока : 468 Мбайт (2%)
    Заголовок : Авторский (Живов)
    Язык : Russian
    Default : Нет
    Forced : Нет

    Аудио #4
    Идентификатор : 5
    Формат : TrueHD
    Идентификатор кодека : A_TRUEHD
    Продолжительность : 1 ч. 42 м.
    Вид битрейта : Переменный
    Максимальный битрейт : 5148 Кбит/сек
    Каналы : 6 каналов
    Расположение каналов : Front: L C R, Side: L R, LFE
    Частота : 48,0 КГц
    Метод сжатия : Без потерь
    Язык : English
    Default : Нет
    Forced : Нет

    Текст #1
    Идентификатор : 6
    Формат : UTF-8
    Идентификатор кодека : S_TEXT/UTF8
    Идентификатор кодека/Информация : UTF-8 Plain Text
    Язык : Russian
    Default : Нет
    Forced : Нет

    Текст #2
    Идентификатор : 7
    Формат : UTF-8
    Идентификатор кодека : S_TEXT/UTF8
    Идентификатор кодека/Информация : UTF-8 Plain Text
    Язык : English
    Default : Да
    Forced : Нет

    Меню
    00:00:00.000 : :Chapter 01
    00:06:14.248 : :Chapter 02
    00:11:09.543 : :Chapter 03
    00:15:19.418 : :Chapter 04
    00:20:05.913 : :Chapter 05
    00:25:26.525 : :Chapter 06
    00:33:06.234 : :Chapter 07
    00:38:25.136 : :Chapter 08
    00:42:12.613 : :Chapter 09
    00:46:37.085 : :Chapter 10
    00:50:24.187 : :Chapter 11
    00:55:22.360 : :Chapter 12
    01:02:02.051 : :Chapter 13
    01:07:23.289 : :Chapter 14
    01:10:33.479 : :Chapter 15
    01:16:05.519 : :Chapter 16
    01:23:24.541 : :Chapter 17
    01:28:24.382 : :Chapter 18
    01:32:37.927 : :Chapter 19
    01:37:30.261 : :Chapter 20
    01:42:08.330 : :Chapter 21




    Скриншоты для ознакомления







    Релиз подготовил: Сборка:
    Залил: ollan
    Размер скачиваемого торрента: 27.51 GB (29534433931 Bytes)

    В поисках галактики / Galaxy Quest (1999) BDRemux 1080p от ExKinoRay | Р, А скачать через торрент бесплатно
    загрузка...
    Рейтинг →
     (голосов: 1, оценка 3/5, голосовать можно 1 раз )

    Другие торренты по теме:

  • Мир в фокусе: В поисках бессмертия (2012) IPTVRip
  • Горец: В поисках мести / Highlander: The Search for Vengeance (2007) DVDRip | Режиссёрская версия / Directors Cut
  • Индиана Джонс: В поисках утраченного ковчега / Indiana Jones: Raiders of the Lost Ark (1981) BDRip от HELLYWOOD
  • В Поисках Луны / Under the Same Moon / Onaji tsuki wo miteiru (2005) DVDRip | L1
  • В поисках мистера Гудбара / Найти хорошего парня / Looking for Mr. Goodbar (1977) SATRip by DST
  • Библиотекарь: В поисках копья судьбы / The Librarian: Quest for the Spear (2004) BDRemux 1080i от HDTracker
  • В поисках бессмертия: Древо Жизни (2013) PC
  • В поисках правды: О ковчеге / The Truth behind: Тhe Ark (2009) HDTVRip


    • Комментарии (0):

      Информация

      Информация

        Посетители, находящиеся в группе Гости, не могут оставлять комментарии в данной новости.

        ↓ Меню



        ↓ Опрос

        А Вы добавили сайт в закладки?
        Да
        Не


        Top 10 за месяц (Фильмы)