.
Авторизация | Регистрация
Хочешь лучшие торренты? Добавь свой email!
Добавить
» » Расследования Мердока / Murdoch Mysteries (2009) Blu-ray 1080p от HDClub скачать торрент бесплатно



    Расследования Мердока / Murdoch Mysteries (2009) Blu-ray 1080p от HDClub скачать торрент бесплатно

    Опубликовал: Админ | Дата: 27-02-2015, 11:09 | Просмотров: 337



    Детально о кино
    Русское название: Расследования Мердока
    Русское название в мировом прокате: Murdoch Mysteries
    Создали в: 2009
    Категория жанра: драма, криминал, детектив
    Главный режиссер: Харви Кросслэнд, Лори Линд, Кэл Кунс
    Актеры: Янник Биссон (Detective William Murdoch), Томас Крэйг (Inspector Thomas Brackenreid), Джонни Харрис (Constable George Crabtree), Хелен Джой (Dr. Julia Ogden), Лаклан Мёрдок (Constable Henry Higgins), Джорджина Рейли (Dr. Emily Grace), Джонатан Уоттон (Dr. Darcy Garland), Арвен Хампрейс (Margaret Brackenreid), Найджел Беннетт (Chief Constable Giles), Кристиан Бруун (Constable Slugger Jackson), Питер Стеббингс (James Pendrick), Питер Келеган (Terrance Meyers)

    Сюжет фильма:
    Конец 19-го века. На улицах Торонто происходят странные убийства. Детектив Уильям Мердок раскрывает их с помощью новой науки - криминалистики. У него есть союзник - судебный врач Джейн Огден. Ни юный возраст, ни хорошее воспитание, ни пышные юбки не мешают ей вскрывать трупы и проводить экспертизы.

    Список серий

    01: Power / Удар током
    02: Glass Ceiling / Стеклянный потолок
    03: The Knockdown / Нокаут
    04: Elementary, My Dear Murdoch / Элементарно, мой дорогой Мёрдок
    05: ;Til Death Do Us Part / Пока смерть не разлучит нас
    06: Let Loose the Dogs / Не буди лихо…
    07: Body Double / Последняя роль
    08: Still Waters / В тихом омуте
    09: Belly Speaker / Чревовещатель
    10: Child;s Play / Недетские игры
    11: Bad Medicine / Горькая пилюля
    12: The Prince and the Rebel / Принц и бунтарь
    13: The Annoying Red Planet / Эта назойливая красная планета


    Дополнительно

    Диски пересобраны из оригинальных Blu-ray.
    Исходные диски приобретены в рамках сервиса от HDCLUB - Копилка: Помоги с Blu-ray (Сериалы). Спонсор Кириллка.
    Русский звук взят с тв трансляции. В 12-й серии в русской дорожке есть места без перевода.

    BDinfo

    Disc Title: MURDOCH_MYSTERIES_S2_D3_BLU-RAY_HDCLUB
    Disc Size: 37 437 260 141 bytes
    Protection: AACS
    BD-Java: No
    BDInfo: 0.5.8

    Notes:

    BDINFO HOME:
    Cinema Squid
    http://www.cinemasquid.com/blu-ray/tools/bdinfo

    INCLUDES FORUMS REPORT FOR:
    AVS Forum Blu-ray Audio and Video Specifications Thread
    http://www.avsforum.com/avs-vb/showthread.php?t=1155731

    ********************
    PLAYLIST: 00036.MPLS
    ********************


    Код:
    Total Video
    Title Codec Length Movie Size Disc Size Bitrate Bitrate Main Audio Track Secondary Audio Track
    ----- ------ ------- -------------- -------------- ------- ------- ------------------ ---------------------
    00036.MPLS AVC 0:47:35 9 175 369 728 37 437 260 141 25,70 23,75 DD AC3 2.0 192Kbps
    Код:
    DISC INFO:

    Disc Title: MURDOCH_MYSTERIES_S2_D3_BLU-RAY_HDCLUB
    Disc Size: 37 437 260 141 bytes
    Protection: AACS
    BD-Java: No
    BDInfo: 0.5.8

    PLAYLIST REPORT:

    Name: 00036.MPLS
    Length: 0:47:35.727 (h:m:s.ms)
    Size: 9 175 369 728 bytes
    Total Bitrate: 25,70 Mbps

    VIDEO:

    Codec Bitrate Deion
    ----- ------- -----------
    MPEG-4 AVC Video 23749 kbps 1080p / 23,976 fps / 16:9 / High Profile 4.1

    AUDIO:

    Codec Language Bitrate Deion
    ----- -------- ------- -----------
    Dolby Digital Audio Russian 192 kbps 2.0 / 48 kHz / 192 kbps / DN -1dB
    Dolby Digital Audio Ukrainian 192 kbps 2.0 / 48 kHz / 192 kbps / DN -1dB
    Dolby Digital Audio English 256 kbps 2.0 / 48 kHz / 256 kbps

    SUBTITLES:

    Codec Language Bitrate Deion
    ----- -------- ------- -----------
    Presentation Graphics English 74,609 kbps

    FILES:

    Name Time In Length Size Total Bitrate
    ---- ------- ------ ---- -------------
    00034.M2TS 0:00:00.000 0:47:35.727 9 175 369 728 25 704

    CHAPTERS:

    Number Time In Length Avg Video Rate Max 1-Sec Rate Max 1-Sec Time Max 5-Sec Rate Max 5-Sec Time Max 10Sec Rate Max 10Sec Time Avg Frame Size Max Frame Size Max Frame Time
    ------ ------- ------ -------------- -------------- -------------- -------------- -------------- -------------- -------------- -------------- -------------- --------------
    1 0:00:00.000 0:08:57.995 23 785 kbps 35 835 kbps 00:03:30.418 32 096 kbps 00:03:29.417 29 760 kbps 00:03:29.584 123 995 bytes 402 066 bytes 00:00:47.047
    2 0:08:57.995 0:08:41.812 25 578 kbps 30 669 kbps 00:17:01.812 29 621 kbps 00:11:05.164 29 168 kbps 00:16:59.351 133 353 bytes 301 220 bytes 00:11:05.915
    3 0:17:39.808 0:08:52.240 23 810 kbps 28 985 kbps 00:25:34.449 27 797 kbps 00:20:39.237 26 342 kbps 00:20:34.233 124 134 bytes 274 694 bytes 00:20:07.331
    4 0:26:32.048 0:07:06.634 22 996 kbps 42 442 kbps 00:26:38.263 37 218 kbps 00:26:35.927 35 564 kbps 00:26:32.549 119 892 bytes 507 366 bytes 00:26:50.525
    5 0:33:38.683 0:10:16.866 23 154 kbps 36 434 kbps 00:40:44.191 30 301 kbps 00:40:40.146 29 527 kbps 00:40:35.683 120 714 bytes 328 064 bytes 00:36:07.123
    6 0:43:55.549 0:03:40.178 22 300 kbps 41 219 kbps 00:43:58.344 33 841 kbps 00:43:56.467 30 448 kbps 00:43:56.592 116 286 bytes 464 173 bytes 00:46:53.185

    STREAM DIAGNOSTICS:

    File PID Type Codec Language Seconds Bitrate Bytes Packets
    ---- --- ---- ----- -------- -------------- -------------- ------------- -----
    00034.M2TS 4113 (0x1011) 0x1B AVC 2855,561 23 750 8 477 475 958 46 113 153
    00034.M2TS 4352 (0x1100) 0x81 AC3 rus (Russian) 2855,561 192 68 537 856 446 210
    00034.M2TS 4353 (0x1101) 0x81 AC3 ukr (Ukrainian) 2855,561 192 68 537 856 446 210
    00034.M2TS 4354 (0x1102) 0x81 AC3 eng (English) 2855,561 256 91 383 808 535 452
    00034.M2TS 4608 (0x1200) 0x90 PGS eng (English) 2855,561 75 26 632 810 151 659


    QUICK SUMMARY:

    Disc Title: MURDOCH_MYSTERIES_S2_D3_BLU-RAY_HDCLUB
    Disc Size: 37 437 260 141 bytes
    Protection: AACS
    BD-Java: No
    Playlist: 00036.MPLS
    Size: 9 175 369 728 bytes
    Length: 0:47:35.727
    Total Bitrate: 25,70 Mbps
    Video: MPEG-4 AVC Video / 23749 kbps / 1080p / 23,976 fps / 16:9 / High Profile 4.1
    Audio: Russian / Dolby Digital Audio / 2.0 / 48 kHz / 192 kbps / DN -1dB
    Audio: Ukrainian / Dolby Digital Audio / 2.0 / 48 kHz / 192 kbps / DN -1dB
    Audio: English / Dolby Digital Audio / 2.0 / 48 kHz / 256 kbps
    Subtitle: English / 74,609 kbps

    ********************
    PLAYLIST: 00044.MPLS
    ********************


    Код:
    Total Video
    Title Codec Length Movie Size Disc Size Bitrate Bitrate Main Audio Track Secondary Audio Track
    ----- ------ ------- -------------- -------------- ------- ------- ------------------ ---------------------
    00044.MPLS AVC 0:47:35 9 175 369 728 37 437 260 141 25,70 23,75 DD AC3 2.0 192Kbps
    Код:
    DISC INFO:

    Disc Title: MURDOCH_MYSTERIES_S2_D3_BLU-RAY_HDCLUB
    Disc Size: 37 437 260 141 bytes
    Protection: AACS
    BD-Java: No
    BDInfo: 0.5.8

    PLAYLIST REPORT:

    Name: 00044.MPLS
    Length: 0:47:35.727 (h:m:s.ms)
    Size: 9 175 369 728 bytes
    Total Bitrate: 25,70 Mbps

    VIDEO:

    Codec Bitrate Deion
    ----- ------- -----------
    MPEG-4 AVC Video 23749 kbps 1080p / 23,976 fps / 16:9 / High Profile 4.1

    AUDIO:

    Codec Language Bitrate Deion
    ----- -------- ------- -----------
    Dolby Digital Audio Russian 192 kbps 2.0 / 48 kHz / 192 kbps / DN -1dB
    Dolby Digital Audio Ukrainian 192 kbps 2.0 / 48 kHz / 192 kbps / DN -1dB
    Dolby Digital Audio English 256 kbps 2.0 / 48 kHz / 256 kbps

    SUBTITLES:

    Codec Language Bitrate Deion
    ----- -------- ------- -----------
    Presentation Graphics English 74,609 kbps

    FILES:

    Name Time In Length Size Total Bitrate
    ---- ------- ------ ---- -------------
    00034.M2TS 0:00:00.000 0:47:35.727 9 175 369 728 25 704

    CHAPTERS:

    Number Time In Length Avg Video Rate Max 1-Sec Rate Max 1-Sec Time Max 5-Sec Rate Max 5-Sec Time Max 10Sec Rate Max 10Sec Time Avg Frame Size Max Frame Size Max Frame Time
    ------ ------- ------ -------------- -------------- -------------- -------------- -------------- -------------- -------------- -------------- -------------- --------------
    1 0:00:00.000 0:08:57.995 23 785 kbps 35 835 kbps 00:03:30.418 32 096 kbps 00:03:29.417 29 760 kbps 00:03:29.584 123 995 bytes 402 066 bytes 00:00:47.047
    2 0:08:57.995 0:08:41.812 25 578 kbps 30 669 kbps 00:17:01.812 29 621 kbps 00:11:05.164 29 168 kbps 00:16:59.351 133 353 bytes 301 220 bytes 00:11:05.915
    3 0:17:39.808 0:08:52.240 23 810 kbps 28 985 kbps 00:25:34.449 27 797 kbps 00:20:39.237 26 342 kbps 00:20:34.233 124 134 bytes 274 694 bytes 00:20:07.331
    4 0:26:32.048 0:07:06.634 22 996 kbps 42 442 kbps 00:26:38.263 37 218 kbps 00:26:35.927 35 564 kbps 00:26:32.549 119 892 bytes 507 366 bytes 00:26:50.525
    5 0:33:38.683 0:10:16.866 23 154 kbps 36 434 kbps 00:40:44.191 30 301 kbps 00:40:40.146 29 527 kbps 00:40:35.683 120 714 bytes 328 064 bytes 00:36:07.123
    6 0:43:55.549 0:03:40.178 22 300 kbps 41 219 kbps 00:43:58.344 33 841 kbps 00:43:56.467 30 448 kbps 00:43:56.592 116 286 bytes 464 173 bytes 00:46:53.185

    STREAM DIAGNOSTICS:

    File PID Type Codec Language Seconds Bitrate Bytes Packets
    ---- --- ---- ----- -------- -------------- -------------- ------------- -----
    00034.M2TS 4113 (0x1011) 0x1B AVC 2855,561 23 750 8 477 475 958 46 113 153
    00034.M2TS 4352 (0x1100) 0x81 AC3 rus (Russian) 2855,561 192 68 537 856 446 210
    00034.M2TS 4353 (0x1101) 0x81 AC3 ukr (Ukrainian) 2855,561 192 68 537 856 446 210
    00034.M2TS 4354 (0x1102) 0x81 AC3 eng (English) 2855,561 256 91 383 808 535 452
    00034.M2TS 4608 (0x1200) 0x90 PGS eng (English) 2855,561 75 26 632 810 151 659


    QUICK SUMMARY:

    Disc Title: MURDOCH_MYSTERIES_S2_D3_BLU-RAY_HDCLUB
    Disc Size: 37 437 260 141 bytes
    Protection: AACS
    BD-Java: No
    Playlist: 00044.MPLS
    Size: 9 175 369 728 bytes
    Length: 0:47:35.727
    Total Bitrate: 25,70 Mbps
    Video: MPEG-4 AVC Video / 23749 kbps / 1080p / 23,976 fps / 16:9 / High Profile 4.1
    Audio: Russian / Dolby Digital Audio / 2.0 / 48 kHz / 192 kbps / DN -1dB
    Audio: Ukrainian / Dolby Digital Audio / 2.0 / 48 kHz / 192 kbps / DN -1dB
    Audio: English / Dolby Digital Audio / 2.0 / 48 kHz / 256 kbps
    Subtitle: English / 74,609 kbps

    ********************
    PLAYLIST: 00050.MPLS
    ********************


    Код:
    Total Video
    Title Codec Length Movie Size Disc Size Bitrate Bitrate Main Audio Track Secondary Audio Track
    ----- ------ ------- -------------- -------------- ------- ------- ------------------ ---------------------
    00050.MPLS AVC 0:47:35 9 175 369 728 37 437 260 141 25,70 23,75 DD AC3 2.0 192Kbps
    Код:
    DISC INFO:

    Disc Title: MURDOCH_MYSTERIES_S2_D3_BLU-RAY_HDCLUB
    Disc Size: 37 437 260 141 bytes
    Protection: AACS
    BD-Java: No
    BDInfo: 0.5.8

    PLAYLIST REPORT:

    Name: 00050.MPLS
    Length: 0:47:35.727 (h:m:s.ms)
    Size: 9 175 369 728 bytes
    Total Bitrate: 25,70 Mbps

    VIDEO:

    Codec Bitrate Deion
    ----- ------- -----------
    MPEG-4 AVC Video 23749 kbps 1080p / 23,976 fps / 16:9 / High Profile 4.1

    AUDIO:

    Codec Language Bitrate Deion
    ----- -------- ------- -----------
    Dolby Digital Audio Russian 192 kbps 2.0 / 48 kHz / 192 kbps / DN -1dB
    Dolby Digital Audio Ukrainian 192 kbps 2.0 / 48 kHz / 192 kbps / DN -1dB
    Dolby Digital Audio English 256 kbps 2.0 / 48 kHz / 256 kbps

    SUBTITLES:

    Codec Language Bitrate Deion
    ----- -------- ------- -----------
    Presentation Graphics English 74,609 kbps

    FILES:

    Name Time In Length Size Total Bitrate
    ---- ------- ------ ---- -------------
    00034.M2TS 0:00:00.000 0:47:35.727 9 175 369 728 25 704

    CHAPTERS:

    Number Time In Length Avg Video Rate Max 1-Sec Rate Max 1-Sec Time Max 5-Sec Rate Max 5-Sec Time Max 10Sec Rate Max 10Sec Time Avg Frame Size Max Frame Size Max Frame Time
    ------ ------- ------ -------------- -------------- -------------- -------------- -------------- -------------- -------------- -------------- -------------- --------------
    1 0:00:00.000 0:08:57.995 23 785 kbps 35 835 kbps 00:03:30.418 32 096 kbps 00:03:29.417 29 760 kbps 00:03:29.584 123 995 bytes 402 066 bytes 00:00:47.047
    2 0:08:57.995 0:08:41.812 25 578 kbps 30 669 kbps 00:17:01.812 29 621 kbps 00:11:05.164 29 168 kbps 00:16:59.351 133 353 bytes 301 220 bytes 00:11:05.915
    3 0:17:39.808 0:08:52.240 23 810 kbps 28 985 kbps 00:25:34.449 27 797 kbps 00:20:39.237 26 342 kbps 00:20:34.233 124 134 bytes 274 694 bytes 00:20:07.331
    4 0:26:32.048 0:07:06.634 22 996 kbps 42 442 kbps 00:26:38.263 37 218 kbps 00:26:35.927 35 564 kbps 00:26:32.549 119 892 bytes 507 366 bytes 00:26:50.525
    5 0:33:38.683 0:10:16.866 23 154 kbps 36 434 kbps 00:40:44.191 30 301 kbps 00:40:40.146 29 527 kbps 00:40:35.683 120 714 bytes 328 064 bytes 00:36:07.123
    6 0:43:55.549 0:03:40.178 22 300 kbps 41 219 kbps 00:43:58.344 33 841 kbps 00:43:56.467 30 448 kbps 00:43:56.592 116 286 bytes 464 173 bytes 00:46:53.185

    STREAM DIAGNOSTICS:

    File PID Type Codec Language Seconds Bitrate Bytes Packets
    ---- --- ---- ----- -------- -------------- -------------- ------------- -----
    00034.M2TS 4113 (0x1011) 0x1B AVC 2855,561 23 750 8 477 475 958 46 113 153
    00034.M2TS 4352 (0x1100) 0x81 AC3 rus (Russian) 2855,561 192 68 537 856 446 210
    00034.M2TS 4353 (0x1101) 0x81 AC3 ukr (Ukrainian) 2855,561 192 68 537 856 446 210
    00034.M2TS 4354 (0x1102) 0x81 AC3 eng (English) 2855,561 256 91 383 808 535 452
    00034.M2TS 4608 (0x1200) 0x90 PGS eng (English) 2855,561 75 26 632 810 151 659


    QUICK SUMMARY:

    Disc Title: MURDOCH_MYSTERIES_S2_D3_BLU-RAY_HDCLUB
    Disc Size: 37 437 260 141 bytes
    Protection: AACS
    BD-Java: No
    Playlist: 00050.MPLS
    Size: 9 175 369 728 bytes
    Length: 0:47:35.727
    Total Bitrate: 25,70 Mbps
    Video: MPEG-4 AVC Video / 23749 kbps / 1080p / 23,976 fps / 16:9 / High Profile 4.1
    Audio: Russian / Dolby Digital Audio / 2.0 / 48 kHz / 192 kbps / DN -1dB
    Audio: Ukrainian / Dolby Digital Audio / 2.0 / 48 kHz / 192 kbps / DN -1dB
    Audio: English / Dolby Digital Audio / 2.0 / 48 kHz / 256 kbps
    Subtitle: English / 74,609 kbps

    ********************
    PLAYLIST: 00037.MPLS
    ********************


    Код:
    Total Video
    Title Codec Length Movie Size Disc Size Bitrate Bitrate Main Audio Track Secondary Audio Track
    ----- ------ ------- -------------- -------------- ------- ------- ------------------ ---------------------
    00037.MPLS AVC 0:47:35 9 168 384 000 37 437 260 141 25,69 23,74 DD AC3 2.0 192Kbps
    Код:
    DISC INFO:

    Disc Title: MURDOCH_MYSTERIES_S2_D3_BLU-RAY_HDCLUB
    Disc Size: 37 437 260 141 bytes
    Protection: AACS
    BD-Java: No
    BDInfo: 0.5.8

    PLAYLIST REPORT:

    Name: 00037.MPLS
    Length: 0:47:35.185 (h:m:s.ms)
    Size: 9 168 384 000 bytes
    Total Bitrate: 25,69 Mbps

    VIDEO:

    Codec Bitrate Deion
    ----- ------- -----------
    MPEG-4 AVC Video 23741 kbps 1080p / 23,976 fps / 16:9 / High Profile 4.1

    AUDIO:

    Codec Language Bitrate Deion
    ----- -------- ------- -----------
    Dolby Digital Audio Russian 192 kbps 2.0 / 48 kHz / 192 kbps / DN -1dB
    Dolby Digital Audio Ukrainian 192 kbps 2.0 / 48 kHz / 192 kbps / DN -1dB
    Dolby Digital Audio English 256 kbps 2.0 / 48 kHz / 256 kbps

    SUBTITLES:

    Codec Language Bitrate Deion
    ----- -------- ------- -----------
    Presentation Graphics English 68,897 kbps

    FILES:

    Name Time In Length Size Total Bitrate
    ---- ------- ------ ---- -------------
    00035.M2TS 0:00:00.000 0:47:35.185 9 168 384 000 25 689

    CHAPTERS:

    Number Time In Length Avg Video Rate Max 1-Sec Rate Max 1-Sec Time Max 5-Sec Rate Max 5-Sec Time Max 10Sec Rate Max 10Sec Time Avg Frame Size Max Frame Size Max Frame Time
    ------ ------- ------ -------------- -------------- -------------- -------------- -------------- -------------- -------------- -------------- -------------- --------------
    1 0:00:00.000 0:10:25.625 24 018 kbps 32 720 kbps 00:00:02.293 29 539 kbps 00:02:22.851 28 730 kbps 00:05:25.742 125 211 bytes 381 413 bytes 00:04:01.658
    2 0:10:25.625 0:05:45.136 24 429 kbps 34 192 kbps 00:11:04.664 31 111 kbps 00:11:04.664 28 257 kbps 00:11:04.664 127 364 bytes 382 490 bytes 00:12:30.207
    3 0:16:10.761 0:08:43.147 23 853 kbps 41 646 kbps 00:19:45.976 37 257 kbps 00:19:43.557 33 301 kbps 00:19:38.510 124 358 bytes 331 120 bytes 00:19:19.658
    4 0:24:53.909 0:07:11.222 22 655 kbps 34 950 kbps 00:26:19.077 29 402 kbps 00:26:18.576 28 128 kbps 00:30:27.867 118 114 bytes 347 362 bytes 00:26:19.828
    5 0:32:05.131 0:11:23.432 24 464 kbps 35 559 kbps 00:38:24.010 31 896 kbps 00:38:24.010 30 786 kbps 00:38:20.506 127 542 bytes 310 038 bytes 00:43:28.439
    6 0:43:28.564 0:04:06.621 21 729 kbps 33 446 kbps 00:44:48.602 29 089 kbps 00:43:30.941 28 114 kbps 00:43:30.774 113 304 bytes 333 086 bytes 00:44:59.113

    STREAM DIAGNOSTICS:

    File PID Type Codec Language Seconds Bitrate Bytes Packets
    ---- --- ---- ----- -------- -------------- -------------- ------------- -----
    00035.M2TS 4113 (0x1011) 0x1B AVC 2855,019 23 742 8 472 989 675 46 088 701
    00035.M2TS 4352 (0x1100) 0x81 AC3 rus (Russian) 2855,019 192 68 524 800 446 125
    00035.M2TS 4353 (0x1101) 0x81 AC3 ukr (Ukrainian) 2855,019 192 68 524 800 446 125
    00035.M2TS 4354 (0x1102) 0x81 AC3 eng (English) 2855,019 256 91 366 400 535 350
    00035.M2TS 4608 (0x1200) 0x90 PGS eng (English) 2855,019 69 24 589 063 140 037


    QUICK SUMMARY:

    Disc Title: MURDOCH_MYSTERIES_S2_D3_BLU-RAY_HDCLUB
    Disc Size: 37 437 260 141 bytes
    Protection: AACS
    BD-Java: No
    Playlist: 00037.MPLS
    Size: 9 168 384 000 bytes
    Length: 0:47:35.185
    Total Bitrate: 25,69 Mbps
    Video: MPEG-4 AVC Video / 23741 kbps / 1080p / 23,976 fps / 16:9 / High Profile 4.1
    Audio: Russian / Dolby Digital Audio / 2.0 / 48 kHz / 192 kbps / DN -1dB
    Audio: Ukrainian / Dolby Digital Audio / 2.0 / 48 kHz / 192 kbps / DN -1dB
    Audio: English / Dolby Digital Audio / 2.0 / 48 kHz / 256 kbps
    Subtitle: English / 68,897 kbps

    ********************
    PLAYLIST: 00045.MPLS
    ********************


    Код:
    Total Video
    Title Codec Length Movie Size Disc Size Bitrate Bitrate Main Audio Track Secondary Audio Track
    ----- ------ ------- -------------- -------------- ------- ------- ------------------ ---------------------
    00045.MPLS AVC 0:47:35 9 168 384 000 37 437 260 141 25,69 23,74 DD AC3 2.0 192Kbps
    Код:
    DISC INFO:

    Disc Title: MURDOCH_MYSTERIES_S2_D3_BLU-RAY_HDCLUB
    Disc Size: 37 437 260 141 bytes
    Protection: AACS
    BD-Java: No
    BDInfo: 0.5.8

    PLAYLIST REPORT:

    Name: 00045.MPLS
    Length: 0:47:35.185 (h:m:s.ms)
    Size: 9 168 384 000 bytes
    Total Bitrate: 25,69 Mbps

    VIDEO:

    Codec Bitrate Deion
    ----- ------- -----------
    MPEG-4 AVC Video 23741 kbps 1080p / 23,976 fps / 16:9 / High Profile 4.1

    AUDIO:

    Codec Language Bitrate Deion
    ----- -------- ------- -----------
    Dolby Digital Audio Russian 192 kbps 2.0 / 48 kHz / 192 kbps / DN -1dB
    Dolby Digital Audio Ukrainian 192 kbps 2.0 / 48 kHz / 192 kbps / DN -1dB
    Dolby Digital Audio English 256 kbps 2.0 / 48 kHz / 256 kbps

    SUBTITLES:

    Codec Language Bitrate Deion
    ----- -------- ------- -----------
    Presentation Graphics English 68,897 kbps

    FILES:

    Name Time In Length Size Total Bitrate
    ---- ------- ------ ---- -------------
    00035.M2TS 0:00:00.000 0:47:35.185 9 168 384 000 25 689

    CHAPTERS:

    Number Time In Length Avg Video Rate Max 1-Sec Rate Max 1-Sec Time Max 5-Sec Rate Max 5-Sec Time Max 10Sec Rate Max 10Sec Time Avg Frame Size Max Frame Size Max Frame Time
    ------ ------- ------ -------------- -------------- -------------- -------------- -------------- -------------- -------------- -------------- -------------- --------------
    1 0:00:00.000 0:10:25.625 24 018 kbps 32 720 kbps 00:00:02.293 29 539 kbps 00:02:22.851 28 730 kbps 00:05:25.742 125 211 bytes 381 413 bytes 00:04:01.658
    2 0:10:25.625 0:05:45.136 24 429 kbps 34 192 kbps 00:11:04.664 31 111 kbps 00:11:04.664 28 257 kbps 00:11:04.664 127 364 bytes 382 490 bytes 00:12:30.207
    3 0:16:10.761 0:08:43.147 23 853 kbps 41 646 kbps 00:19:45.976 37 257 kbps 00:19:43.557 33 301 kbps 00:19:38.510 124 358 bytes 331 120 bytes 00:19:19.658
    4 0:24:53.909 0:07:11.222 22 655 kbps 34 950 kbps 00:26:19.077 29 402 kbps 00:26:18.576 28 128 kbps 00:30:27.867 118 114 bytes 347 362 bytes 00:26:19.828
    5 0:32:05.131 0:11:23.432 24 464 kbps 35 559 kbps 00:38:24.010 31 896 kbps 00:38:24.010 30 786 kbps 00:38:20.506 127 542 bytes 310 038 bytes 00:43:28.439
    6 0:43:28.564 0:04:06.621 21 729 kbps 33 446 kbps 00:44:48.602 29 089 kbps 00:43:30.941 28 114 kbps 00:43:30.774 113 304 bytes 333 086 bytes 00:44:59.113

    STREAM DIAGNOSTICS:

    File PID Type Codec Language Seconds Bitrate Bytes Packets
    ---- --- ---- ----- -------- -------------- -------------- ------------- -----
    00035.M2TS 4113 (0x1011) 0x1B AVC 2855,019 23 742 8 472 989 675 46 088 701
    00035.M2TS 4352 (0x1100) 0x81 AC3 rus (Russian) 2855,019 192 68 524 800 446 125
    00035.M2TS 4353 (0x1101) 0x81 AC3 ukr (Ukrainian) 2855,019 192 68 524 800 446 125
    00035.M2TS 4354 (0x1102) 0x81 AC3 eng (English) 2855,019 256 91 366 400 535 350
    00035.M2TS 4608 (0x1200) 0x90 PGS eng (English) 2855,019 69 24 589 063 140 037


    QUICK SUMMARY:

    Disc Title: MURDOCH_MYSTERIES_S2_D3_BLU-RAY_HDCLUB
    Disc Size: 37 437 260 141 bytes
    Protection: AACS
    BD-Java: No
    Playlist: 00045.MPLS
    Size: 9 168 384 000 bytes
    Length: 0:47:35.185
    Total Bitrate: 25,69 Mbps
    Video: MPEG-4 AVC Video / 23741 kbps / 1080p / 23,976 fps / 16:9 / High Profile 4.1
    Audio: Russian / Dolby Digital Audio / 2.0 / 48 kHz / 192 kbps / DN -1dB
    Audio: Ukrainian / Dolby Digital Audio / 2.0 / 48 kHz / 192 kbps / DN -1dB
    Audio: English / Dolby Digital Audio / 2.0 / 48 kHz / 256 kbps
    Subtitle: English / 68,897 kbps

    ********************
    PLAYLIST: 00051.MPLS
    ********************


    Код:
    Total Video
    Title Codec Length Movie Size Disc Size Bitrate Bitrate Main Audio Track Secondary Audio Track
    ----- ------ ------- -------------- -------------- ------- ------- ------------------ ---------------------
    00051.MPLS AVC 0:47:35 9 168 384 000 37 437 260 141 25,69 23,74 DD AC3 2.0 192Kbps
    Код:
    DISC INFO:

    Disc Title: MURDOCH_MYSTERIES_S2_D3_BLU-RAY_HDCLUB
    Disc Size: 37 437 260 141 bytes
    Protection: AACS
    BD-Java: No
    BDInfo: 0.5.8

    PLAYLIST REPORT:

    Name: 00051.MPLS
    Length: 0:47:35.185 (h:m:s.ms)
    Size: 9 168 384 000 bytes
    Total Bitrate: 25,69 Mbps

    VIDEO:

    Codec Bitrate Deion
    ----- ------- -----------
    MPEG-4 AVC Video 23741 kbps 1080p / 23,976 fps / 16:9 / High Profile 4.1

    AUDIO:

    Codec Language Bitrate Deion
    ----- -------- ------- -----------
    Dolby Digital Audio Russian 192 kbps 2.0 / 48 kHz / 192 kbps / DN -1dB
    Dolby Digital Audio Ukrainian 192 kbps 2.0 / 48 kHz / 192 kbps / DN -1dB
    Dolby Digital Audio English 256 kbps 2.0 / 48 kHz / 256 kbps

    SUBTITLES:

    Codec Language Bitrate Deion
    ----- -------- ------- -----------
    Presentation Graphics English 68,897 kbps

    FILES:

    Name Time In Length Size Total Bitrate
    ---- ------- ------ ---- -------------
    00035.M2TS 0:00:00.000 0:47:35.185 9 168 384 000 25 689

    CHAPTERS:

    Number Time In Length Avg Video Rate Max 1-Sec Rate Max 1-Sec Time Max 5-Sec Rate Max 5-Sec Time Max 10Sec Rate Max 10Sec Time Avg Frame Size Max Frame Size Max Frame Time
    ------ ------- ------ -------------- -------------- -------------- -------------- -------------- -------------- -------------- -------------- -------------- --------------
    1 0:00:00.000 0:10:25.625 24 018 kbps 32 720 kbps 00:00:02.293 29 539 kbps 00:02:22.851 28 730 kbps 00:05:25.742 125 211 bytes 381 413 bytes 00:04:01.658
    2 0:10:25.625 0:05:45.136 24 429 kbps 34 192 kbps 00:11:04.664 31 111 kbps 00:11:04.664 28 257 kbps 00:11:04.664 127 364 bytes 382 490 bytes 00:12:30.207
    3 0:16:10.761 0:08:43.147 23 853 kbps 41 646 kbps 00:19:45.976 37 257 kbps 00:19:43.557 33 301 kbps 00:19:38.510 124 358 bytes 331 120 bytes 00:19:19.658
    4 0:24:53.909 0:07:11.222 22 655 kbps 34 950 kbps 00:26:19.077 29 402 kbps 00:26:18.576 28 128 kbps 00:30:27.867 118 114 bytes 347 362 bytes 00:26:19.828
    5 0:32:05.131 0:11:23.432 24 464 kbps 35 559 kbps 00:38:24.010 31 896 kbps 00:38:24.010 30 786 kbps 00:38:20.506 127 542 bytes 310 038 bytes 00:43:28.439
    6 0:43:28.564 0:04:06.621 21 729 kbps 33 446 kbps 00:44:48.602 29 089 kbps 00:43:30.941 28 114 kbps 00:43:30.774 113 304 bytes 333 086 bytes 00:44:59.113

    STREAM DIAGNOSTICS:

    File PID Type Codec Language Seconds Bitrate Bytes Packets
    ---- --- ---- ----- -------- -------------- -------------- ------------- -----
    00035.M2TS 4113 (0x1011) 0x1B AVC 2855,019 23 742 8 472 989 675 46 088 701
    00035.M2TS 4352 (0x1100) 0x81 AC3 rus (Russian) 2855,019 192 68 524 800 446 125
    00035.M2TS 4353 (0x1101) 0x81 AC3 ukr (Ukrainian) 2855,019 192 68 524 800 446 125
    00035.M2TS 4354 (0x1102) 0x81 AC3 eng (English) 2855,019 256 91 366 400 535 350
    00035.M2TS 4608 (0x1200) 0x90 PGS eng (English) 2855,019 69 24 589 063 140 037


    QUICK SUMMARY:

    Disc Title: MURDOCH_MYSTERIES_S2_D3_BLU-RAY_HDCLUB
    Disc Size: 37 437 260 141 bytes
    Protection: AACS
    BD-Java: No
    Playlist: 00051.MPLS
    Size: 9 168 384 000 bytes
    Length: 0:47:35.185
    Total Bitrate: 25,69 Mbps
    Video: MPEG-4 AVC Video / 23741 kbps / 1080p / 23,976 fps / 16:9 / High Profile 4.1
    Audio: Russian / Dolby Digital Audio / 2.0 / 48 kHz / 192 kbps / DN -1dB
    Audio: Ukrainian / Dolby Digital Audio / 2.0 / 48 kHz / 192 kbps / DN -1dB
    Audio: English / Dolby Digital Audio / 2.0 / 48 kHz / 256 kbps
    Subtitle: English / 68,897 kbps

    ********************
    PLAYLIST: 00041.MPLS
    ********************


    Код:
    Total Video
    Title Codec Length Movie Size Disc Size Bitrate Bitrate Main Audio Track Secondary Audio Track
    ----- ------ ------- -------------- -------------- ------- ------- ------------------ ---------------------
    00041.MPLS AVC 0:47:35 9 170 485 248 37 437 260 141 25,70 23,75 DD AC3 2.0 192Kbps
    Код:
    DISC INFO:

    Disc Title: MURDOCH_MYSTERIES_S2_D3_BLU-RAY_HDCLUB
    Disc Size: 37 437 260 141 bytes
    Protection: AACS
    BD-Java: No
    BDInfo: 0.5.8

    PLAYLIST REPORT:

    Name: 00041.MPLS
    Length: 0:47:35.102 (h:m:s.ms)
    Size: 9 170 485 248 bytes
    Total Bitrate: 25,70 Mbps

    VIDEO:

    Codec Bitrate Deion
    ----- ------- -----------
    MPEG-4 AVC Video 23749 kbps 1080p / 23,976 fps / 16:9 / High Profile 4.1

    AUDIO:

    Codec Language Bitrate Deion
    ----- -------- ------- -----------
    Dolby Digital Audio Russian 192 kbps 2.0 / 48 kHz / 192 kbps / DN -1dB
    Dolby Digital Audio Ukrainian 192 kbps 2.0 / 48 kHz / 192 kbps / DN -1dB
    Dolby Digital Audio English 256 kbps 2.0 / 48 kHz / 256 kbps

    SUBTITLES:

    Codec Language Bitrate Deion
    ----- -------- ------- -----------
    Presentation Graphics English 66,708 kbps

    FILES:

    Name Time In Length Size Total Bitrate
    ---- ------- ------ ---- -------------
    00036.M2TS 0:00:00.000 0:47:35.102 9 170 485 248 25 696

    CHAPTERS:

    Number Time In Length Avg Video Rate Max 1-Sec Rate Max 1-Sec Time Max 5-Sec Rate Max 5-Sec Time Max 10Sec Rate Max 10Sec Time Avg Frame Size Max Frame Size Max Frame Time
    ------ ------- ------ -------------- -------------- -------------- -------------- -------------- -------------- -------------- -------------- -------------- --------------
    1 0:00:00.000 0:05:59.901 23 103 kbps 33 890 kbps 00:02:04.374 29 908 kbps 00:02:04.165 29 150 kbps 00:03:28.791 120 434 bytes 323 342 bytes 00:05:12.061
    2 0:05:59.901 0:08:26.172 26 061 kbps 41 363 kbps 00:11:53.629 39 803 kbps 00:12:05.474 35 697 kbps 00:12:01.220 135 868 bytes 436 966 bytes 00:07:37.748
    3 0:14:26.073 0:09:32.029 25 649 kbps 40 694 kbps 00:20:34.900 39 980 kbps 00:20:30.896 36 862 kbps 00:20:28.268 133 722 bytes 504 971 bytes 00:20:30.312
    4 0:23:58.103 0:07:54.390 23 184 kbps 35 795 kbps 00:26:35.260 27 304 kbps 00:31:41.941 27 197 kbps 00:31:41.816 120 873 bytes 326 333 bytes 00:26:36.511
    5 0:31:52.493 0:07:13.057 20 836 kbps 30 177 kbps 00:39:03.841 30 003 kbps 00:36:08.583 29 719 kbps 00:36:06.164 108 630 bytes 277 500 bytes 00:36:10.209
    6 0:39:05.551 0:08:29.550 22 779 kbps 31 518 kbps 00:42:23.415 29 805 kbps 00:39:20.608 29 384 kbps 00:39:16.854 118 770 bytes 285 559 bytes 00:43:38.324

    STREAM DIAGNOSTICS:

    File PID Type Codec Language Seconds Bitrate Bytes Packets
    ---- --- ---- ----- -------- -------------- -------------- ------------- -----
    00036.M2TS 4113 (0x1011) 0x1B AVC 2854,935 23 751 8 475 843 069 46 104 156
    00036.M2TS 4352 (0x1100) 0x81 AC3 rus (Russian) 2854,935 192 68 522 496 446 110
    00036.M2TS 4353 (0x1101) 0x81 AC3 ukr (Ukrainian) 2854,935 192 68 522 496 446 110
    00036.M2TS 4354 (0x1102) 0x81 AC3 eng (English) 2854,935 256 91 363 328 535 332
    00036.M2TS 4608 (0x1200) 0x90 PGS eng (English) 2854,935 67 23 807 201 135 578


    QUICK SUMMARY:

    Disc Title: MURDOCH_MYSTERIES_S2_D3_BLU-RAY_HDCLUB
    Disc Size: 37 437 260 141 bytes
    Protection: AACS
    BD-Java: No
    Playlist: 00041.MPLS
    Size: 9 170 485 248 bytes
    Length: 0:47:35.102
    Total Bitrate: 25,70 Mbps
    Video: MPEG-4 AVC Video / 23749 kbps / 1080p / 23,976 fps / 16:9 / High Profile 4.1
    Audio: Russian / Dolby Digital Audio / 2.0 / 48 kHz / 192 kbps / DN -1dB
    Audio: Ukrainian / Dolby Digital Audio / 2.0 / 48 kHz / 192 kbps / DN -1dB
    Audio: English / Dolby Digital Audio / 2.0 / 48 kHz / 256 kbps
    Subtitle: English / 66,708 kbps

    ********************
    PLAYLIST: 00046.MPLS
    ********************


    Код:
    Total Video
    Title Codec Length Movie Size Disc Size Bitrate Bitrate Main Audio Track Secondary Audio Track
    ----- ------ ------- -------------- -------------- ------- ------- ------------------ ---------------------
    00046.MPLS AVC 0:47:35 9 170 485 248 37 437 260 141 25,70 23,75 DD AC3 2.0 192Kbps
    Код:
    DISC INFO:

    Disc Title: MURDOCH_MYSTERIES_S2_D3_BLU-RAY_HDCLUB
    Disc Size: 37 437 260 141 bytes
    Protection: AACS
    BD-Java: No
    BDInfo: 0.5.8

    PLAYLIST REPORT:

    Name: 00046.MPLS
    Length: 0:47:35.102 (h:m:s.ms)
    Size: 9 170 485 248 bytes
    Total Bitrate: 25,70 Mbps

    VIDEO:

    Codec Bitrate Deion
    ----- ------- -----------
    MPEG-4 AVC Video 23749 kbps 1080p / 23,976 fps / 16:9 / High Profile 4.1

    AUDIO:

    Codec Language Bitrate Deion
    ----- -------- ------- -----------
    Dolby Digital Audio Russian 192 kbps 2.0 / 48 kHz / 192 kbps / DN -1dB
    Dolby Digital Audio Ukrainian 192 kbps 2.0 / 48 kHz / 192 kbps / DN -1dB
    Dolby Digital Audio English 256 kbps 2.0 / 48 kHz / 256 kbps

    SUBTITLES:

    Codec Language Bitrate Deion
    ----- -------- ------- -----------
    Presentation Graphics English 66,708 kbps

    FILES:

    Name Time In Length Size Total Bitrate
    ---- ------- ------ ---- -------------
    00036.M2TS 0:00:00.000 0:47:35.102 9 170 485 248 25 696

    CHAPTERS:

    Number Time In Length Avg Video Rate Max 1-Sec Rate Max 1-Sec Time Max 5-Sec Rate Max 5-Sec Time Max 10Sec Rate Max 10Sec Time Avg Frame Size Max Frame Size Max Frame Time
    ------ ------- ------ -------------- -------------- -------------- -------------- -------------- -------------- -------------- -------------- -------------- --------------
    1 0:00:00.000 0:05:59.901 23 103 kbps 33 890 kbps 00:02:04.374 29 908 kbps 00:02:04.165 29 150 kbps 00:03:28.791 120 434 bytes 323 342 bytes 00:05:12.061
    2 0:05:59.901 0:08:26.172 26 061 kbps 41 363 kbps 00:11:53.629 39 803 kbps 00:12:05.474 35 697 kbps 00:12:01.220 135 868 bytes 436 966 bytes 00:07:37.748
    3 0:14:26.073 0:09:32.029 25 649 kbps 40 694 kbps 00:20:34.900 39 980 kbps 00:20:30.896 36 862 kbps 00:20:28.268 133 722 bytes 504 971 bytes 00:20:30.312
    4 0:23:58.103 0:07:54.390 23 184 kbps 35 795 kbps 00:26:35.260 27 304 kbps 00:31:41.941 27 197 kbps 00:31:41.816 120 873 bytes 326 333 bytes 00:26:36.511
    5 0:31:52.493 0:07:13.057 20 836 kbps 30 177 kbps 00:39:03.841 30 003 kbps 00:36:08.583 29 719 kbps 00:36:06.164 108 630 bytes 277 500 bytes 00:36:10.209
    6 0:39:05.551 0:08:29.550 22 779 kbps 31 518 kbps 00:42:23.415 29 805 kbps 00:39:20.608 29 384 kbps 00:39:16.854 118 770 bytes 285 559 bytes 00:43:38.324

    STREAM DIAGNOSTICS:

    File PID Type Codec Language Seconds Bitrate Bytes Packets
    ---- --- ---- ----- -------- -------------- -------------- ------------- -----
    00036.M2TS 4113 (0x1011) 0x1B AVC 2854,935 23 751 8 475 843 069 46 104 156
    00036.M2TS 4352 (0x1100) 0x81 AC3 rus (Russian) 2854,935 192 68 522 496 446 110
    00036.M2TS 4353 (0x1101) 0x81 AC3 ukr (Ukrainian) 2854,935 192 68 522 496 446 110
    00036.M2TS 4354 (0x1102) 0x81 AC3 eng (English) 2854,935 256 91 363 328 535 332
    00036.M2TS 4608 (0x1200) 0x90 PGS eng (English) 2854,935 67 23 807 201 135 578


    QUICK SUMMARY:

    Disc Title: MURDOCH_MYSTERIES_S2_D3_BLU-RAY_HDCLUB
    Disc Size: 37 437 260 141 bytes
    Protection: AACS
    BD-Java: No
    Playlist: 00046.MPLS
    Size: 9 170 485 248 bytes
    Length: 0:47:35.102
    Total Bitrate: 25,70 Mbps
    Video: MPEG-4 AVC Video / 23749 kbps / 1080p / 23,976 fps / 16:9 / High Profile 4.1
    Audio: Russian / Dolby Digital Audio / 2.0 / 48 kHz / 192 kbps / DN -1dB
    Audio: Ukrainian / Dolby Digital Audio / 2.0 / 48 kHz / 192 kbps / DN -1dB
    Audio: English / Dolby Digital Audio / 2.0 / 48 kHz / 256 kbps
    Subtitle: English / 66,708 kbps

    ********************
    PLAYLIST: 00052.MPLS
    ********************


    Код:
    Total Video
    Title Codec Length Movie Size Disc Size Bitrate Bitrate Main Audio Track Secondary Audio Track
    ----- ------ ------- -------------- -------------- ------- ------- ------------------ ---------------------
    00052.MPLS AVC 0:47:35 9 170 485 248 37 437 260 141 25,70 23,75 DD AC3 2.0 192Kbps
    Код:
    DISC INFO:

    Disc Title: MURDOCH_MYSTERIES_S2_D3_BLU-RAY_HDCLUB
    Disc Size: 37 437 260 141 bytes
    Protection: AACS
    BD-Java: No
    BDInfo: 0.5.8

    PLAYLIST REPORT:

    Name: 00052.MPLS
    Length: 0:47:35.102 (h:m:s.ms)
    Size: 9 170 485 248 bytes
    Total Bitrate: 25,70 Mbps

    VIDEO:

    Codec Bitrate Deion
    ----- ------- -----------
    MPEG-4 AVC Video 23749 kbps 1080p / 23,976 fps / 16:9 / High Profile 4.1

    AUDIO:

    Codec Language Bitrate Deion
    ----- -------- ------- -----------
    Dolby Digital Audio Russian 192 kbps 2.0 / 48 kHz / 192 kbps / DN -1dB
    Dolby Digital Audio Ukrainian 192 kbps 2.0 / 48 kHz / 192 kbps / DN -1dB
    Dolby Digital Audio English 256 kbps 2.0 / 48 kHz / 256 kbps

    SUBTITLES:

    Codec Language Bitrate Deion
    ----- -------- ------- -----------
    Presentation Graphics English 66,708 kbps

    FILES:

    Name Time In Length Size Total Bitrate
    ---- ------- ------ ---- -------------
    00036.M2TS 0:00:00.000 0:47:35.102 9 170 485 248 25 696

    CHAPTERS:

    Number Time In Length Avg Video Rate Max 1-Sec Rate Max 1-Sec Time Max 5-Sec Rate Max 5-Sec Time Max 10Sec Rate Max 10Sec Time Avg Frame Size Max Frame Size Max Frame Time
    ------ ------- ------ -------------- -------------- -------------- -------------- -------------- -------------- -------------- -------------- -------------- --------------
    1 0:00:00.000 0:05:59.901 23 103 kbps 33 890 kbps 00:02:04.374 29 908 kbps 00:02:04.165 29 150 kbps 00:03:28.791 120 434 bytes 323 342 bytes 00:05:12.061
    2 0:05:59.901 0:08:26.172 26 061 kbps 41 363 kbps 00:11:53.629 39 803 kbps 00:12:05.474 35 697 kbps 00:12:01.220 135 868 bytes 436 966 bytes 00:07:37.748
    3 0:14:26.073 0:09:32.029 25 649 kbps 40 694 kbps 00:20:34.900 39 980 kbps 00:20:30.896 36 862 kbps 00:20:28.268 133 722 bytes 504 971 bytes 00:20:30.312
    4 0:23:58.103 0:07:54.390 23 184 kbps 35 795 kbps 00:26:35.260 27 304 kbps 00:31:41.941 27 197 kbps 00:31:41.816 120 873 bytes 326 333 bytes 00:26:36.511
    5 0:31:52.493 0:07:13.057 20 836 kbps 30 177 kbps 00:39:03.841 30 003 kbps 00:36:08.583 29 719 kbps 00:36:06.164 108 630 bytes 277 500 bytes 00:36:10.209
    6 0:39:05.551 0:08:29.550 22 779 kbps 31 518 kbps 00:42:23.415 29 805 kbps 00:39:20.608 29 384 kbps 00:39:16.854 118 770 bytes 285 559 bytes 00:43:38.324

    STREAM DIAGNOSTICS:

    File PID Type Codec Language Seconds Bitrate Bytes Packets
    ---- --- ---- ----- -------- -------------- -------------- ------------- -----
    00036.M2TS 4113 (0x1011) 0x1B AVC 2854,935 23 751 8 475 843 069 46 104 156
    00036.M2TS 4352 (0x1100) 0x81 AC3 rus (Russian) 2854,935 192 68 522 496 446 110
    00036.M2TS 4353 (0x1101) 0x81 AC3 ukr (Ukrainian) 2854,935 192 68 522 496 446 110
    00036.M2TS 4354 (0x1102) 0x81 AC3 eng (English) 2854,935 256 91 363 328 535 332
    00036.M2TS 4608 (0x1200) 0x90 PGS eng (English) 2854,935 67 23 807 201 135 578


    QUICK SUMMARY:

    Disc Title: MURDOCH_MYSTERIES_S2_D3_BLU-RAY_HDCLUB
    Disc Size: 37 437 260 141 bytes
    Protection: AACS
    BD-Java: No
    Playlist: 00052.MPLS
    Size: 9 170 485 248 bytes
    Length: 0:47:35.102
    Total Bitrate: 25,70 Mbps
    Video: MPEG-4 AVC Video / 23749 kbps / 1080p / 23,976 fps / 16:9 / High Profile 4.1
    Audio: Russian / Dolby Digital Audio / 2.0 / 48 kHz / 192 kbps / DN -1dB
    Audio: Ukrainian / Dolby Digital Audio / 2.0 / 48 kHz / 192 kbps / DN -1dB
    Audio: English / Dolby Digital Audio / 2.0 / 48 kHz / 256 kbps
    Subtitle: English / 66,708 kbps

    ********************
    PLAYLIST: 00053.MPLS
    ********************


    Код:
    Total Video
    Title Codec Length Movie Size Disc Size Bitrate Bitrate Main Audio Track Secondary Audio Track
    ----- ------ ------- -------------- -------------- ------- ------- ------------------ ---------------------
    00053.MPLS AVC 0:47:34 9 167 314 944 37 437 260 141 25,69 23,74 DD AC3 2.0 192Kbps
    Код:
    DISC INFO:

    Disc Title: MURDOCH_MYSTERIES_S2_D3_BLU-RAY_HDCLUB
    Disc Size: 37 437 260 141 bytes
    Protection: AACS
    BD-Java: No
    BDInfo: 0.5.8

    PLAYLIST REPORT:

    Name: 00053.MPLS
    Length: 0:47:34.601 (h:m:s.ms)
    Size: 9 167 314 944 bytes
    Total Bitrate: 25,69 Mbps

    VIDEO:

    Codec Bitrate Deion
    ----- ------- -----------
    MPEG-4 AVC Video 23739 kbps 1080p / 23,976 fps / 16:9 / High Profile 4.1

    AUDIO:

    Codec Language Bitrate Deion
    ----- -------- ------- -----------
    Dolby Digital Audio Russian 192 kbps 2.0 / 48 kHz / 192 kbps / DN -1dB
    Dolby Digital Audio Ukrainian 192 kbps 2.0 / 48 kHz / 192 kbps / DN -1dB
    Dolby Digital Audio English 256 kbps 2.0 / 48 kHz / 256 kbps

    SUBTITLES:

    Codec Language Bitrate Deion
    ----- -------- ------- -----------
    Presentation Graphics English 72,953 kbps

    FILES:

    Name Time In Length Size Total Bitrate
    ---- ------- ------ ---- -------------
    00037.M2TS 0:00:00.000 0:47:34.601 9 167 314 944 25 691

    CHAPTERS:

    Number Time In Length Avg Video Rate Max 1-Sec Rate Max 1-Sec Time Max 5-Sec Rate Max 5-Sec Time Max 10Sec Rate Max 10Sec Time Avg Frame Size Max Frame Size Max Frame Time
    ------ ------- ------ -------------- -------------- -------------- -------------- -------------- -------------- -------------- -------------- -------------- --------------
    1 0:00:00.000 0:07:04.632 23 802 kbps 34 082 kbps 00:00:46.296 30 078 kbps 00:01:41.017 29 219 kbps 00:01:40.642 124 083 bytes 423 681 bytes 00:00:47.756
    2 0:07:04.632 0:07:40.418 24 294 kbps 33 673 kbps 00:12:31.917 29 506 kbps 00:12:31.333 27 788 kbps 00:10:03.894 126 660 bytes 399 806 bytes 00:12:33.377
    3 0:14:45.050 0:08:35.515 24 408 kbps 33 768 kbps 00:15:57.957 31 442 kbps 00:22:07.242 28 897 kbps 00:22:07.242 127 250 bytes 436 309 bytes 00:14:46.802
    4 0:23:20.565 0:12:11.564 24 172 kbps 41 790 kbps 00:24:34.973 33 584 kbps 00:30:59.023 32 442 kbps 00:30:59.649 126 023 bytes 469 148 bytes 00:24:43.315
    5 0:35:32.130 0:06:48.908 23 472 kbps 33 047 kbps 00:39:26.781 27 866 kbps 00:35:36.968 27 285 kbps 00:36:54.170 122 373 bytes 334 337 bytes 00:38:06.826
    6 0:42:21.038 0:05:13.563 21 072 kbps 34 312 kbps 00:46:16.857 31 006 kbps 00:46:15.355 27 320 kbps 00:44:52.815 109 877 bytes 421 235 bytes 00:45:02.241

    STREAM DIAGNOSTICS:

    File PID Type Codec Language Seconds Bitrate Bytes Packets
    ---- --- ---- ----- -------- -------------- -------------- ------------- -----
    00037.M2TS 4113 (0x1011) 0x1B AVC 2854,435 23 740 8 470 550 454 46 075 393
    00037.M2TS 4352 (0x1100) 0x81 AC3 rus (Russian) 2854,435 192 68 510 976 446 035
    00037.M2TS 4353 (0x1101) 0x81 AC3 ukr (Ukrainian) 2854,435 192 68 510 976 446 035
    00037.M2TS 4354 (0x1102) 0x81 AC3 eng (English) 2854,435 256 91 347 968 535 242
    00037.M2TS 4608 (0x1200) 0x90 PGS eng (English) 2854,435 73 26 031 368 148 083


    QUICK SUMMARY:

    Disc Title: MURDOCH_MYSTERIES_S2_D3_BLU-RAY_HDCLUB
    Disc Size: 37 437 260 141 bytes
    Protection: AACS
    BD-Java: No
    Playlist: 00053.MPLS
    Size: 9 167 314 944 bytes
    Length: 0:47:34.601
    Total Bitrate: 25,69 Mbps
    Video: MPEG-4 AVC Video / 23739 kbps / 1080p / 23,976 fps / 16:9 / High Profile 4.1
    Audio: Russian / Dolby Digital Audio / 2.0 / 48 kHz / 192 kbps / DN -1dB
    Audio: Ukrainian / Dolby Digital Audio / 2.0 / 48 kHz / 192 kbps / DN -1dB
    Audio: English / Dolby Digital Audio / 2.0 / 48 kHz / 256 kbps
    Subtitle: English / 72,953 kbps

    ********************
    PLAYLIST: 00055.MPLS
    ********************


    Код:
    Total Video
    Title Codec Length Movie Size Disc Size Bitrate Bitrate Main Audio Track Secondary Audio Track
    ----- ------ ------- -------------- -------------- ------- ------- ------------------ ---------------------
    00055.MPLS AVC 0:47:34 9 167 314 944 37 437 260 141 25,69 23,74 DD AC3 2.0 192Kbps
    Код:
    DISC INFO:

    Disc Title: MURDOCH_MYSTERIES_S2_D3_BLU-RAY_HDCLUB
    Disc Size: 37 437 260 141 bytes
    Protection: AACS
    BD-Java: No
    BDInfo: 0.5.8

    PLAYLIST REPORT:

    Name: 00055.MPLS
    Length: 0:47:34.601 (h:m:s.ms)
    Size: 9 167 314 944 bytes
    Total Bitrate: 25,69 Mbps

    VIDEO:

    Codec Bitrate Deion
    ----- ------- -----------
    MPEG-4 AVC Video 23739 kbps 1080p / 23,976 fps / 16:9 / High Profile 4.1

    AUDIO:

    Codec Language Bitrate Deion
    ----- -------- ------- -----------<
    загрузка...
    Рейтинг →
     (голосов: 1, оценка 3/5, голосовать можно 1 раз )

    Другие торренты по теме:

  • Расследования Мердока / Murdoch Mysteries (2012) HDTVRip | DreamRecords
  • Расследования Мердока / Murdoch Mysteries (2013) HDTVRip | DreamRecords
  • Расследования Мердока / Murdoch Mysteries (2004) DVDRip от Brazzass
  • Расследования Мердока / Murdoch Mysteries (2010) Blu-ray 1080p от HDClub
  • Расследования Мердока / Murdoch Mysteries (2008) Blu-ray 1080p от HDClub
  • Расследования Мердока / Murdoch Mysteries (2008) BDRip 720p от HDClub скачать через торрент бесплатно
  • Расследования Мердока / Murdoch Mysteries (2009) BDRip 720p от HDClub
  • Расследования Мердока / Murdoch Mysteries (2010) BDRip 720p от HDClub скачать через торрент бесплатно


    • Комментарии (0):

      Информация

      Информация

        Посетители, находящиеся в группе Гости, не могут оставлять комментарии в данной новости.

        ↓ Меню



        ↓ Опрос

        А Вы добавили сайт в закладки?
        Да
        Не


        Top 10 за месяц (Фильмы)