.
Авторизация | Регистрация
Хочешь лучшие торренты? Добавь свой email!
Добавить




Берега (2012) DVDRip от NovaLan скачать торрент бесплатно

Опубликовал: Админ | Дата: 27-02-2015, 11:09 | Просмотров: 298





Снималось в: Россия
Создали в: KoBura Film
Категория жанра: Боевик, мелодрама
Создали в: 2012

Время просмотра: 8 x ~ 00:44:00


Язык: Руский


Главный режиссер: Богдан Дробязко


Актеры: Александр Носик, Екатерина Вуличенко, Елена Захарова, Ян Цапник, Сергей Баталов, Олег Комаров, Ксения Буравская, Сергей Дорогов, Владимир Носик, Леонид Громов, Дмитрий Калистратов, Александр Кузнецов, Андрей Фиронов, Алексей Симонов (II), Анастасия Дубровина, Лилия Разакова, Виктория Куликова




Сюжет: Майор-штабист Ковальский, зять столичного генерала, волею случая и своего лучшего друга и сослуживца Остроумова попадает из столицы в глухомань: пограничную заставу на российско-финской границе. Там чистенькому столичному штабисту приходится нелегко. Но он сумеет доказать всем, что он достоин звания российского солдата.

Исходник: DVD9 R5

Тип релиза: DVDRip

Контейнер: AVI


Информация о видео: 720x400 (1.80:1), 23.976 fps, XviD ~1390 kbps avg, 0.20 bit/pixel
Информация о звуке: 48 kHz, AC3 2.0 ~192.00 kbps avg



MediaInfo
Общее
Полное имя : D:1АААБерега1 серия.avi
Формат : AVI
Формат/Информация : Audio Video Interleave
Размер файла : 502 Мбайт
Продолжительность : 44 м.
Общий поток : 1592 Кбит/сек
Программа кодирования : VirtualDubMod 1.5.10.3 | www.virtualdub-fr.org || (build 2550/release)
Библиотека кодирования : VirtualDubMod build 2550/release

Видео
Идентификатор : 0
Формат : MPEG-4 Visual
Профиль формата : Advanced Simple@L5
Параметр BVOP формата : 2
Параметр QPel формата : Нет
Параметр GMC формата : Без точки перехода
Параметр матрицы формата : Default (MPEG)
Режим смешивания : Сжатый битовый поток
Идентификатор кодека : XVID
Идентификатор кодека/Подсказка : XviD
Продолжительность : 44 м.
Битрейт : 1391 Кбит/сек
Ширина : 720 пикселей
Высота : 400 пикселей
Соотношение сторон : 16:9
Частота кадров : 23,976 кадра/сек
Цветовое пространство : YUV
Субдискретизация насыщенности : 4:2:0
Битовая глубина : 8 бит
Тип развёртки : Прогрессивная
Метод сжатия : С потерями
Бит/(Пиксели*Кадры) : 0.201
Размер потока : 438 Мбайт (87%)
Библиотека кодирования : XviD 1.2.1 (UTC 2008-12-04)

Аудио
Идентификатор : 1
Формат : AC-3
Формат/Информация : Audio Coding 3
Расширение режима : CM (complete main)
Параметр Endianness формата : Big
Идентификатор кодека : 2000
Продолжительность : 44 м.
Вид битрейта : Постоянный
Битрейт : 192 Кбит/сек
Каналы : 2 канала
Расположение каналов : Front: L R
Частота : 48,0 КГц
Битовая глубина : 16 бит
Метод сжатия : С потерями
Размер потока : 60,5 Мбайт (12%)
Выравнивание : Разделение по промежуткам
Продолжительность промежутка : 42 мс. (1,00 видеокадр)
Время предзагрузки промежутка : 500 мс.







Скриншоты для ознакомления




Релиз группа:

Автор рипа:
Залил: YArl
Размер скачиваемого торрента: 3.92 GB (4205123584 Bytes)

Берега (2012) DVDRip от NovaLan торрент скачать бесплатно
загрузка...
Рейтинг →
 (голосов: 1, оценка 4/5, голосовать можно 1 раз )

Другие торренты по теме:

  • Александр Бушков - Сварог 6. Чужие берега (2013) MP3
  • Берега (2012) IPTVRip-AVC
  • Берега (2012) HDTVRip 720p
  • Крутые берега (2011) DVB
  • Берега (2012) HDTV 1080i
  • Семиречье - Вдоль берега (2007) MP3
  • Берега моей мечты (2013) SATRip от РиперАМ скачать через торрент бесплатно
  • Берега моей мечты (2013) DVB от Files-x скачать через торрент бесплатно


    • Комментарии (0):

      Информация

      Информация

        Посетители, находящиеся в группе Гости, не могут оставлять комментарии в данной новости.

        ↓ Меню



        ↓ Опрос

        А Вы добавили сайт в закладки?
        Да
        Не


        Top 10 за месяц (Фильмы)