.
Авторизация | Регистрация
Хочешь лучшие торренты? Добавь свой email!
Добавить
» » Инспектор Льюис / Lewis (2008) HDTVRip 720p скачать через торрент бесплатно




    Инспектор Льюис / Lewis (2008) HDTVRip 720p скачать через торрент бесплатно

    Опубликовал: Админ | Дата: 27-02-2015, 11:09 | Просмотров: 420



    Детально о кино
    Русское название: Инспектор Льюис
    Русское название в мировом прокате: Lewis
    Создали в: 2008
    Категория жанра: драма, криминал, детектив
    Главный режиссер: Билл Андерсон, Дэн Рид, Николас Рентон
    Актеры: Кевин Уотли, Лоуренс Фокс, Клер Холман, Ребекка Фронт, Колин Декстер, Alton Letto, Грег Беннетт, Джейсон Дурр, Пол Андерсон, Pippa Bennett-Warner

    Сюжет фильма:
    Перед вами захватывающая детективная драма, в центре которой - жизнь и работа Роберта Льюиса, обаятельного полицейского, знакомого зрителям по популярному сериалу Инспектор Морс. Через пять лет после смерти своего друга и начальника, Морса, инспектор Льюис возвращается на привычную территорию - в университетский городок Оксфорда. Теперь ему предстоит не только расследовать тяжкие преступления, но и противостоять натиску нового босса - женщины с весьма непростым характером.

    Амбициозная студентка Оксфорда найдена убитой в своём гостиничном номере после приглашения знаменитого хакера, недавно вышедшего из тюрьмы, выступить в университете. Льюис и Хэтуэй принимаются за расследование этого дела, в котором есть всё - от рухнувших надежд и коварства близких до теней из прошлого Льюиса...

    Содержание

    01. И лунный свет поцеловал море (А свет луны ласкает океан) / And the Moonbeams Kiss the Sea (2007)
    Оксфордской бибилотеки обнаружен труп инженера по эксплуатации зданий. Выяснилось, что покойный был страстным игроком, но постоянно проигрывал. А в последнее время он неожиданно увлекся чтением редких старинных книг, которые брал в архиве библиотеки. Несколько книг было найдено у него дома, но с вырванными страницами... А через день была убита студентка факультета искусствоведения, также увлекавшаяся библиотечными раритетами.

    02. Музыка, за которую можно умереть / Music to Die For (Partitur Des Tofes) (2007)
    Убит преподаватель университета, накануне подравшийся с менеджером модного клуба. Но, расследуя убийство, инспектор Льюис выясняет, что в основе преступления - политические мотивы.

    03. Рожденный в огне (Жизнь, рожденная в огне) / Life Born of Fire (2008)
    Ночью в церкви Святого Марка покончил собой выпускник колледжа Уилл Маккартни. А вскоре в Оксфорде происходит целая серия убийств людей, хорошо знавших погибшего. За расследование дела принимаются инспектор Роберт Льюис и его напарник Джеймс Хэтуэй.

    04. Великие и талантливые (Сильные мира сего и благодетель / Большой и Хороший) / The Great and the Good (2008)
    Инспектор Льюис травмирует спину во время игры в сквош со своим напарником и попадает в больницу. Там Льюис и сержант Хэтэуэй знакомятся с семейной парой Донелли. Дочь супругов, школьница Беатрис, очнулась посреди поля с амнезией. Выясняется, что девушке подсыпали какой-то отбивающий память препарат и изнасиловали ее. В ходе расследования, инспектор Льюис приходит к выводу, что здесь замешан работник школы, в которой учится Беатрис, Освальд Купер.


    Снималось в: Великобритания
    Время просмотра: 4 x ~ 01:33:00
    Перевод текста: Профессиональный многоголосый закадровый - студия Лексикон по заказу ТВЦ

    Файл
    Кодек для видео: x264
    Качество фильма: HDTVRip 720p
    Информация о видео: 1280x720 at 50 fps, x264@L4.1, 2pass, ~3200 kbps avg, 0.07 bit/pixel
    Информация о звуке:
    Аудио #1: Русский: 48 kHz, AC3, 2/0 (L,R) ch, ~192 kbps avg |Многоголосый закадровый, ТВЦ|
    Аудио #2: Английский: 48 kHz, AC3, 3/2 (L,C,R,l,r) LFE ch, ~448.00 kbps avg
    Субтитры: Русские, Английские
    MI

    General
    Complete name : Lewis.S02E01.Life.Born.of.Fire.720p.HDTVRip.Rus.Eng.mkv
    Format : Matroska
    Format version : Version 2
    File size : 2.45 GiB
    Duration : 1h 32mn
    Overall bit rate : 3 795 Kbps
    Encoded date : UTC 2012-06-25 15:53:59
    Writing application : mkvmerge v5.6.0 (;Kenya Kane;) built on May 27 2012 16:44:04
    Writing library : libebml v1.2.3 libmatroska v1.3.0

    Video
    ID : 1
    Format : AVC
    Format/Info : Advanced Video Codec
    Format profile : High@L4.1
    Format settings, CABAC : Yes
    Format settings, ReFrames : 4 frames
    Codec ID : V_MPEG4/ISO/AVC
    Duration : 1h 32mn
    Bit rate : 3 148 Kbps
    Width : 1 280 pixels
    Height : 720 pixels
    Display aspect ratio : 16:9
    Frame rate : 50.000 fps
    Color space : YUV
    Chroma subsampling : 4:2:0
    Bit depth : 8 bits
    Scan type : Progressive
    Bits/(Pixel*Frame) : 0.068
    Stream size : 1.99 GiB (81%)
    Writing library : x264 core 80 r1376 3feaec2
    Encoding settings : cabac=1 / ref=4 / deblock=1:0:0 / analyse=0x3:0x113 / me=hex / subme=7 / psy=1 / psy_rd=1.0:0.0 / mixed_ref=1 / me_range=16 / chroma_me=1 / trellis=1 / 8x8dct=1 / cqm=0 / deadzone=21,11 / fast_pskip=0 / chroma_qp_offset=-2 / threads=12 / sliced_threads=0 / nr=0 / decimate=1 / mbaff=0 / constrained_intra=0 / bframes=3 / b_pyramid=2 / b_adapt=1 / b_bias=0 / direct=1 / wpredb=1 / wpredp=2 / keyint=250 / keyint_min=25 / scenecut=40 / rc_lookahead=40 / rc=2pass / mbtree=1 / bitrate=3148 / ratetol=1.0 / qcomp=0.60 / qpmin=10 / qpmax=51 / qpstep=4 / cplxblur=20.0 / qblur=0.5 / vbv_maxrate=20000 / vbv_bufsize=25000 / ip_ratio=1.40 / aq=1:1.00
    Language : English
    Default : Yes
    Forced : No

    Audio #1
    ID : 2
    Format : AC-3
    Format/Info : Audio Coding 3
    Mode extension : CM (complete main)
    Codec ID : A_AC3
    Duration : 1h 32mn
    Bit rate mode : Constant
    Bit rate : 192 Kbps
    Channel(s) : 2 channels
    Channel positions : Front: L R
    Sampling rate : 48.0 KHz
    Bit depth : 16 bits
    Compression mode : Lossy
    Stream size : 127 MiB (5%)
    Title : ТВЦ
    Language : Russian
    Default : Yes
    Forced : No

    Audio #2
    ID : 3
    Format : AC-3
    Format/Info : Audio Coding 3
    Mode extension : CM (complete main)
    Codec ID : A_AC3
    Duration : 1h 32mn
    Bit rate mode : Constant
    Bit rate : 448 Kbps
    Channel(s) : 6 channels
    Channel positions : Front: L C R, Side: L R, LFE
    Sampling rate : 48.0 KHz
    Bit depth : 16 bits
    Compression mode : Lossy
    Stream size : 297 MiB (12%)
    Language : English
    Default : No
    Forced : No

    Text #1
    ID : 4
    Format : UTF-8
    Codec ID : S_TEXT/UTF8
    Codec ID/Info : UTF-8 Plain Text
    Language : Russian
    Default : No
    Forced : No

    Text #2
    ID : 5
    Format : UTF-8
    Codec ID : S_TEXT/UTF8
    Codec ID/Info : UTF-8 Plain Text
    Language : English
    Default : No
    Forced : No

    Скриншоты для ознакомления


    Размер скачиваемого торрента: 9.80 GB (10527235276 Bytes)

    Инспектор Льюис / Lewis (2008) HDTVRip 720p скачать через торрент бесплатно
    загрузка...
    Рейтинг →
     (голосов: 1, оценка 4/5, голосовать можно 1 раз )

    Другие торренты по теме:

  • Инспектор Льюис / Lewis (2013) WEB-DL 1080p скачать через торрент бесплатно
  • Инспектор Льюис / Lewis (2013) WEB-DL 720p скачать через торрент бесплатно
  • Инспектор Льюис / Lewis (2011-2012) WEB-DL 720p скачать через торрент бесплатно
  • Инспектор Льюис / Lewis (2011-2012) WEB-DL 1080p скачать через торрент бесплатно
  • Инспектор Льюис / Lewis (2011) WEB-DL 1080p скачать через торрент бесплатно
  • Инспектор Льюис / Lewis (2011) WEB-DL 720p скачать через торрент бесплатно
  • Инспектор Льюис / Lewis (2010) HDTVRip 720p скачать через торрент бесплатно
  • Инспектор Льюис / Lewis (2009) HDTVRip 720p скачать через торрент бесплатно


    • Комментарии (0):

      Информация

      Информация

        Посетители, находящиеся в группе Гости, не могут оставлять комментарии в данной новости.

        ↓ Меню



        ↓ Опрос

        А Вы добавили сайт в закладки?
        Да
        Не


        Top 10 за месяц (Фильмы)