.
Авторизация | Регистрация
Хочешь лучшие торренты? Добавь свой email!
Добавить
» » Ночная смена / Graveyard Shift (1990) WEB-DLRip-AVC | P скачать через торрент бесплатно




    Ночная смена / Graveyard Shift (1990) WEB-DLRip-AVC | P скачать через торрент бесплатно

    Опубликовал: Админ | Дата: 27-02-2015, 11:09 | Просмотров: 294



    Детально о кино
    Русское название: Ночная смена
    Русское название в мировом прокате: Graveyard Shift
    Создали в: 1990
    Категория жанра: ужасы
    Главный режиссер: Ральф С. Синглтон / Ralph S. Singleton
    Актеры: Дэвид Эндрюс /David Andrews, Келли Вульф /Kelly Wolf, Стефен Махт /Stephen Macht/, Эндрю Дивофф /Andrew Divoff/, Вик Полицос /Vic Polizos/, Брэд Дуриф /Brad Dourif/, Роберт Алан Бойт /Robert Alan Beuth/, Илона Марголис /Ilona Margolis/, Джимми Вудард /Jimmy Woodard/, Джонатан Эмерсон /Jonathan Emerson

    Сюжет фильма:
    Гейтсхолл — маленький заброшенный американский городишко. Расположенная неподалеку от кладбища и пришедшая со временем в упадок ткацкая фабрика стала прибежищем полчища крыс.

    Группа рабочих спускается в подвал, чтобы расчистить его. В результате аварии они оказываются в западне — в царстве страха и ужаса.




    Снималось в: США, Япония
    Время просмотра: 01:26:17
    Перевод текста: Профессиональный (многоголосый закадровый)

    Файл
    Кодек для видео: H.264
    Качество фильма: WEB-DLRip-AVC
    Информация о видео: 1024x576; 23.976 fps; ~ 2214 Kbpss; 0.157 Bits/Pixel
    Информация о звуке: Russian - 48 kHz, AC3, 2/0 Front: L R, ~ 192 kbps - MVO

    MediaInfo
    Формат : Matroska
    Версия формата : Version 2
    Размер файла : 1,45 Гбайт
    Продолжительность : 1 ч. 26 м.
    Общий поток : 2408 Кбит/сек
    Дата кодирования : UTC 2013-12-03 09:16:47
    Программа кодирования : mkvmerge v5.3.0 (;I could have danced;) built on Feb 9 2012 10:38:07
    Библиотека кодирования : libebml v1.2.3 libmatroska v1.3.0

    Видео
    Идентификатор : 1
    Формат : AVC
    Формат/Информация : Advanced Video Codec
    Профиль формата : High@L4.1
    Параметр CABAC формата : Да
    Параметр ReFrames формата : 5 кадров
    Идентификатор кодека : V_MPEG4/ISO/AVC
    Продолжительность : 1 ч. 26 м.
    Битрейт : 2214 Кбит/сек
    Ширина : 1024 пикселя
    Высота : 576 пикселей
    Соотношение сторон : 16:9
    Режим частоты кадров : Постоянный
    Частота кадров : 23,976 кадра/сек
    Цветовое пространство : YUV
    Субдискретизация насыщенности : 4:2:0
    Битовая глубина : 8 бит
    Тип развёртки : Прогрессивная
    Бит/(Пиксели*Кадры) : 0.157
    Размер потока : 1,31 Гбайт (90%)
    Библиотека кодирования : x264 core 130 r2273 b3065e6
    Настройки программы : cabac=1 / ref=5 / deblock=1:-2:-2 / analyse=0x3:0x133 / me=umh / subme=10 / psy=1 / psy_rd=1.01:0.05 / mixed_ref=1 / me_range=32 / chroma_me=1 / trellis=2 / 8x8dct=1 / cqm=0 / deadzone=21,11 / fast_pskip=1 / chroma_qp_offset=-3 / threads=12 / lookahead_threads=1 / sliced_threads=0 / nr=0 / decimate=1 / interlaced=0 / bluray_compat=0 / constrained_intra=0 / bframes=5 / b_pyramid=2 / b_adapt=2 / b_bias=0 / direct=3 / weightb=1 / open_gop=0 / weightp=2 / keyint=240 / keyint_min=23 / scenecut=40 / intra_refresh=0 / rc_lookahead=100 / rc=2pass / mbtree=1 / bitrate=2214 / ratetol=1.0 / qcomp=0.60 / qpmin=0 / qpmax=69 / qpstep=4 / cplxblur=20.0 / qblur=0.5 / ip_ratio=1.40 / aq=1:1.00
    Язык : English
    Default : Да
    Forced : Нет

    Аудио
    Идентификатор : 2
    Формат : AC-3
    Формат/Информация : Audio Coding 3
    Расширение режима : CM (complete main)
    Параметр Endianness формата : Big
    Идентификатор кодека : A_AC3
    Продолжительность : 1 ч. 26 м.
    Вид битрейта : Постоянный
    Битрейт : 192 Кбит/сек
    Каналы : 2 канала
    Расположение каналов : Front: L R
    Частота : 48,0 КГц
    Битовая глубина : 16 бит
    Метод сжатия : С потерями
    Размер потока : 119 Мбайт (8%)
    Default : Да
    Forced : Нет

    Скриншоты для ознакомления

    Размер скачиваемого торрента: 1.45 GB (1558259124 Bytes)

    Ночная смена / Graveyard Shift (1990) WEB-DLRip-AVC | P скачать через торрент бесплатно
    загрузка...
    Рейтинг →
     (голосов: 1, оценка 4/5, голосовать можно 1 раз )

    Другие торренты по теме:

  • Ночная смена / Graveyard Shift (1990) HDRip-AVC | P
  • Стивен Кинг - Ночная смена. Я - дверной проем (2013) MP3
  • Ночная смена / The Night Shift (2014) HDTVRip | VictoryFilms скачать через торрент бесплатно
  • Ночная смена / The Night Shift (2015) WEB-DL 720p | Flux-Team
  • Ночная смена / The Night Shift (2016) HDTVRip | Sunshine Studio
  • Ночная смена / The Night Shift (2016) HDTV 720p | Gears Media
  • Ночная смена / The Night Shift (2016) HDTV 720p | Gears Media
  • Ночная смена / Graveyard Shift (1990) WEBRip-AVC | P, A


    • Комментарии (0):

      Информация

      Информация

        Посетители, находящиеся в группе Гости, не могут оставлять комментарии в данной новости.

        ↓ Меню



        ↓ Опрос

        А Вы добавили сайт в закладки?
        Да
        Не


        Top 10 за месяц (Фильмы)