.
Авторизация | Регистрация
Хочешь лучшие торренты? Добавь свой email!
Добавить
» » Страсти Дон Жуана / Don Jon (2013) BDRip-AVC | Лицензия скачать через торрент бесплатно




    Страсти Дон Жуана / Don Jon (2013) BDRip-AVC | Лицензия скачать через торрент бесплатно

    Опубликовал: Админ | Дата: 27-02-2015, 11:09 | Просмотров: 274





    Детально о кино
    Русское название: Страсти Дон Жуана
    Русское название в мировом прокате: Don Jon
    Создали в: 2013
    Категория жанра: комедия, мелодрама
    Главный режиссер: Джозеф Гордон-Левитт
    Актеры: Джозеф Гордон-Левитт, Скарлетт Йоханссон, Джулианна Мур, Тони Данца, Гленн Хедли, Бри Ларсон, Роб Браун, Джереми Люк, Пол Бен-Виктор, Италиа Риччи

    Сюжет фильма: Комичная история современного ловеласа, который из каждого любовного приключения вынужден спасаться бегством. Он еще не знает, что недалек тот час, когда ему все-таки придется остепениться.



    Снималось в: США / Voltage Pictures, HitRecord Films, Ram Bergman Productions
    Время просмотра: 01:26:13
    Тип перевода: Дублированное лицензия

    Файл
    Тип видео: MKV
    Качество фильма: BDRip-AVC Рип с Blu-Ray
    Информация о видео: 1968 kb/s, 1024x432
    Информация о звуке: AC3, 448 kb/s (6 ch)





    MI

    Format : Matroska
    Format version : Version 2
    File size : 1.45 GiB
    Duration : 1h 26mn
    Overall bit rate : 2 411 Kbps
    Encoded date : UTC 2013-12-04 14:16:01
    Writing application : mkvmerge v6.1.0 (;Old Devil;) built on Mar 4 2013 09:10:42
    Writing library : libebml v1.3.0 libmatroska v1.4.0

    Video
    ID : 1
    Format : AVC
    Format/Info : Advanced Video Codec
    Format profile : High@L4.1
    Format settings, CABAC : Yes
    Format settings, ReFrames : 10 frames
    Codec ID : V_MPEG4/ISO/AVC
    Duration : 1h 26mn
    Bit rate : 1 968 Kbps
    Width : 1 024 pixels
    Height : 432 pixels
    Display aspect ratio : 2.40:1
    Frame rate : 25.000 fps
    Color space : YUV
    Chroma subsampling : 4:2:0
    Bit depth : 8 bits
    Scan type : Progressive
    Bits/(Pixel*Frame) : 0.178
    Stream size : 1.15 GiB (79%)
    Writing library : x264 core 130 r2273 b3065e6
    Encoding settings : cabac=1 / ref=10 / deblock=1:-3:-2 / analyse=0x3:0x133 / me=umh / subme=11 / psy=1 / psy_rd=1.00:0.20 / mixed_ref=1 / me_range=32 / chroma_me=1 / trellis=2 / 8x8dct=1 / cqm=0 / deadzone=21,11 / fast_pskip=0 / chroma_qp_offset=-3 / threads=12 / lookahead_threads=2 / sliced_threads=0 / nr=0 / decimate=0 / interlaced=0 / bluray_compat=0 / constrained_intra=0 / bframes=8 / b_pyramid=2 / b_adapt=2 / b_bias=0 / direct=3 / weightb=1 / open_gop=0 / weightp=2 / keyint=250 / keyint_min=25 / scenecut=40 / intra_refresh=0 / rc=2pass / mbtree=0 / bitrate=1968 / ratetol=1.0 / qcomp=0.60 / qpmin=0 / qpmax=69 / qpstep=4 / cplxblur=20.0 / qblur=0.5 / ip_ratio=1.40 / pb_ratio=1.30 / aq=1:1.00
    Default : Yes
    Forced : No

    Audio
    ID : 2
    Format : AC-3
    Format/Info : Audio Coding 3
    Mode extension : CM (complete main)
    Format settings, Endianness : Big
    Codec ID : A_AC3
    Duration : 1h 26mn
    Bit rate mode : Constant
    Bit rate : 448 Kbps
    Channel(s) : 6 channels
    Channel positions : Front: L C R, Side: L R, LFE
    Sampling rate : 48.0 KHz
    Bit depth : 16 bits
    Compression mode : Lossy
    Stream size : 276 MiB (19%)
    Default : Yes
    Forced : No
    Скриншоты для ознакомления


    Рип: 03nazar03
    Размер скачиваемого торрента: 1.45 GB (1559322455 Bytes)

    Страсти Дон Жуана / Don Jon (2013) BDRip-AVC | Лицензия скачать через торрент бесплатно
    загрузка...
    Рейтинг →
     (голосов: 1, оценка 3/5, голосовать можно 1 раз )

    Другие торренты по теме:

  • Страсти Дон Жуана / Don Jon (2013) DVDRip | Лицензия
  • Страсти Дон Жуана / Don Jon (2013) DVDRip-AVC от New-Team | D | лицензия скачать через торрент бесплатно
  • Страсти Дон Жуана / Don Jon (2013) DVD5 R5 от New-Team | D | лицензия скачать через торрент бесплатно
  • Страсти Дон Жуана / Don Jon (2013) DVDRip от New-Team | D | лицензия скачать через торрент бесплатно
  • Страсти Дон Жуана / Don Jon (2013) DVDRip от Scarabey | D | Лицензия скачать через торрент бесплатно
  • Страсти Дон Жуана / Don Jon (2013) BDRip 720p | D | Лицензия скачать через торрент бесплатно
  • Страсти Дон Жуана / Don Jon (2013) BDRip 1080p | D | Лицензия скачать через торрент бесплатно
  • Страсти Дон Жуана / Don Jon (2013) HDRip-AVC от Aybek.B | D


    • Комментарии (0):

      Информация

      Информация

        Посетители, находящиеся в группе Гости, не могут оставлять комментарии в данной новости.

        ↓ Меню



        ↓ Опрос

        А Вы добавили сайт в закладки?
        Да
        Не


        Top 10 за месяц (Фильмы)