.
Авторизация | Регистрация
Хочешь лучшие торренты? Добавь свой email!
Добавить
» » Два нуля / Double zero (2004) DVDRip-AVC скачать через торрент бесплатно




    Два нуля / Double zero (2004) DVDRip-AVC скачать через торрент бесплатно

    Опубликовал: Админ | Дата: 27-02-2015, 11:09 | Просмотров: 356



    Детально о кино
    Русское название: Два нуля
    Русское название в мировом прокате: Double zero
    Создали в: 2004
    Категория жанра: Комедия, боевик
    Главный режиссер: Жерар Пирес
    Актеры: Эрик Жюдор, Рамзи Бедиа, Эдуар Баэр, Джорджанна Робертсон, Франсуа Шатто, Дидье Фламан, Росси де Пальма, Нино Киртадзе

    Сюжет фильма:
    Бен и Вилл — самые бездарные агенты, полные нули, круглые идиоты. Кому же еще поручить суперсложное, сверхсекретное задание? Глава преступного синдиката украл ядерную бомбу. Обезвредить злодея сможет далеко не каждый дурак, а только наши безбашенные друзья.

    Их ждет незабываемый вояж из Парижа на сказочную Ямайку, прямо в логово врага. Тупиц ничто не остановит. Им все нипочем — ни танки, ни армия ниндзя, ни команда обнаженных топ-моделей. У чудаков своя логика. Они спасут мир. Джеймс Бонд отдыхает!



    Снималось в: Франция
    Киностудия: Warner Bros France
    Время просмотра: 01:26:42
    Перевод текста: Дубляж (Лицензия)

    Файл
    Кодек для видео: h264
    Качество фильма: DVDRip-AVC
    Информация о видео: Bit rate: 2 008 Kbps, Width: 720 pixels, Height: 304 pixels
    Информация о звуке: Русский AC-3, 384 Kbps, 6 channels

    MediaInfo

    Video
    ID : 1
    Format : AVC
    Format/Info : Advanced Video Codec
    Format profile : High@L4.1
    Format settings, CABAC : Yes
    Format settings, ReFrames : 5 frames
    Codec ID : V_MPEG4/ISO/AVC
    Duration : 1h 26mn
    Bit rate : 2 008 Kbps
    Width : 720 pixels
    Height : 304 pixels
    Display aspect ratio : 2.35:1
    Frame rate mode : Constant
    Frame rate : 23.976 fps
    Color space : YUV
    Chroma subsampling : 4:2:0
    Bit depth : 8 bits
    Scan type : Progressive
    Bits/(Pixel*Frame) : 0.383
    Stream size : 1.18 GiB (82%)

    Audio
    ID : 2
    Format : AC-3
    Format/Info : Audio Coding 3
    Mode extension : CM (complete main)
    Format settings, Endianness : Big
    Codec ID : A_AC3
    Duration : 1h 26mn
    Bit rate mode : Constant
    Bit rate : 384 Kbps
    Channel(s) : 6 channels
    Channel positions : Front: L C R, Side: L R, LFE
    Sampling rate : 48.0 KHz
    Bit depth : 16 bits
    Compression mode : Lossy
    Stream size : 238 MiB (16%)
    Default : Yes
    Forced : No

    Скриншоты для ознакомления


    Релиз подготовил: ..::ArchangeL::..
    Залил: ..::ArchangeL::..
    Размер скачиваемого торрента: 1.44 GB (1547751644 Bytes)

    Два нуля / Double zero (2004) DVDRip-AVC скачать через торрент бесплатно
    загрузка...
    Рейтинг →
     (голосов: 1, оценка 3/5, голосовать можно 1 раз )

    Другие торренты по теме:

  • Зед и два нуля / Zed Two Noughts (1986) DVDRip-AVC | P скачать через торрент бесплатно
  • Семьдесят два градуса ниже нуля (72 градуса ниже нуля) / 1976 / РУ / SATRip


    • Комментарии (0):

      Информация

      Информация

        Посетители, находящиеся в группе Гости, не могут оставлять комментарии в данной новости.

        ↓ Меню



        ↓ Опрос

        А Вы добавили сайт в закладки?
        Да
        Не


        Top 10 за месяц (Фильмы)