.
Авторизация | Регистрация
Хочешь лучшие торренты? Добавь свой email!
Добавить




Маски / Masks (2011) BDRip 720p | L1 скачать торрент бесплатно

Опубликовал: Админ | Дата: 27-02-2015, 11:09 | Просмотров: 399



Детально о кино
Русское название: Маски
Русское название в мировом прокате: Masks
Создали в: 2011
Категория жанра: ужасы, триллер, детектив
Главный режиссер: Андреас Маршалл
Актеры: Michael Balaun, Люцина Бьяли, Lisa Blaschke, Франциска Брайте, Z?beyde Bulut, Nico Ousman Corr, Lena Coskuner, Malin Dodin, Питер Донат, Susen Ermich

Сюжет фильма: Фильм рассказывает о девушке по имени Стелла, которую приняли в таинственную школу. Основатель школы покончил жизнь самоубийством, когда его собственный учебный метод был запрещен из-за участившихся смертельных случаев среди учеников в 70-х годах. Но после того как необъяснимые вещи вновь начинают происходить в школе, Стелла начала подозревать, что запрещенный метод по-прежнему действует. И она любой ценой хочет учавствовать во всём этом…



Снималось в: Германия, Anolis Entertainment
Время просмотра: 01:48:36
Тип перевода: Любительское (одноголосое) den904

Файл
Тип видео: MKV
Качество фильма: BDRip 720p
Информация о видео: 3500 kb/s, 1280x546
Информация о звуке: Russian: AC3, 192 kb/s (2 ch) / German: DTS, 1510 kb/s (6 ch)
Субтитры: German





MI

Format : Matroska
Format version : Version 4 / Version 2
File size : 3.94 GiB
Duration : 1h 48mn
Overall bit rate : 5 199 Kbps
Encoded date : UTC 2013-12-03 10:52:06
Writing application : mkvmerge v6.1.0 (;Old Devil;) built on Mar 4 2013 09:10:42
Writing library : libebml v1.3.0 libmatroska v1.4.0

Video
ID : 1
Format : AVC
Format/Info : Advanced Video Codec
Format profile : High@L4.1
Format settings, CABAC : Yes
Format settings, ReFrames : 11 frames
Codec ID : V_MPEG4/ISO/AVC
Duration : 1h 48mn
Bit rate : 3 500 Kbps
Width : 1 280 pixels
Height : 546 pixels
Display aspect ratio : 2.35:1
Frame rate : 24.000 fps
Color space : YUV
Chroma subsampling : 4:2:0
Bit depth : 8 bits
Scan type : Progressive
Bits/(Pixel*Frame) : 0.209
Stream size : 2.57 GiB (65%)
Title : Masks 2011
Writing library : x264 core 128 r2216 198a7ea
Encoding settings : cabac=1 / ref=11 / deblock=1:-3:-3 / analyse=0x3:0x113 / me=tesa / subme=11 / psy=1 / psy_rd=1.05:0.00 / mixed_ref=1 / me_range=16 / chroma_me=1 / trellis=2 / 8x8dct=1 / cqm=0 / deadzone=21,11 / fast_pskip=0 / chroma_qp_offset=-2 / threads=12 / lookahead_threads=2 / sliced_threads=0 / nr=0 / decimate=0 / interlaced=0 / bluray_compat=0 / constrained_intra=0 / bframes=9 / b_pyramid=2 / b_adapt=2 / b_bias=0 / direct=3 / weightb=1 / open_gop=0 / weightp=2 / keyint=250 / keyint_min=24 / scenecut=40 / intra_refresh=0 / rc=2pass / mbtree=0 / bitrate=3500 / ratetol=1.0 / qcomp=0.60 / qpmin=0 / qpmax=69 / qpstep=4 / cplxblur=20.0 / qblur=0.5 / ip_ratio=1.40 / pb_ratio=1.30 / aq=1:0.60
Language : German
Default : Yes
Forced : No

Audio #1
ID : 2
Format : AC-3
Format/Info : Audio Coding 3
Mode extension : CM (complete main)
Format settings, Endianness : Big
Codec ID : A_AC3
Duration : 1h 48mn
Bit rate mode : Constant
Bit rate : 192 Kbps
Channel(s) : 2 channels
Channel positions : Front: L R
Sampling rate : 48.0 KHz
Bit depth : 16 bits
Compression mode : Lossy
Stream size : 149 MiB (4%)
Language : Russian
Default : Yes
Forced : No

Audio #2
ID : 3
Format : DTS
Format/Info : Digital Theater Systems
Codec ID : A_DTS
Duration : 1h 48mn
Bit rate mode : Constant
Bit rate : 1 510 Kbps
Channel(s) : 6 channels
Channel positions : Front: L C R, Side: L R, LFE
Sampling rate : 48.0 KHz
Bit depth : 24 bits
Compression mode : Lossy
Stream size : 1.15 GiB (29%)
Language : German
Default : No
Forced : No

Text
ID : 4
Format : UTF-8
Codec ID : S_TEXT/UTF8
Codec ID/Info : UTF-8 Plain Text
Language : German
Default : No
Forced : No

Menu
00:00:00.000 : en:00:00:00.000
00:04:09.000 : en:00:04:09.000
00:07:25.208 : en:00:07:25.208
00:14:35.042 : en:00:14:35.042
00:20:27.833 : en:00:20:27.833
00:23:50.375 : en:00:23:50.375
00:26:37.250 : en:00:26:37.250
00:33:41.083 : en:00:33:41.083
00:36:44.000 : en:00:36:44.000
00:44:24.583 : en:00:44:24.583
00:49:09.583 : en:00:49:09.583
00:53:41.083 : en:00:53:41.083
00:58:40.750 : en:00:58:40.750
01:03:30.875 : en:01:03:30.875
01:09:34.792 : en:01:09:34.792
01:16:03.875 : en:01:16:03.875
01:21:47.292 : en:01:21:47.292
01:25:35.000 : en:01:25:35.000
01:27:16.708 : en:01:27:16.708
01:30:06.917 : en:01:30:06.917
01:32:38.500 : en:01:32:38.500
01:34:53.875 : en:01:34:53.875
01:39:05.500 : en:01:39:05.500
01:44:21.042 : en:01:44:21.042
Скриншоты для ознакомления

Размер скачиваемого торрента: 3.94 GB (4235134592 Bytes)

Маски / Masks (2011) BDRip 720p | L1 торрент скачать бесплатно
загрузка...
Рейтинг →
 (голосов: 1, оценка 5/5, голосовать можно 1 раз )

Другие торренты по теме:

  • Детские новогодние карнавальные маски (2012) PNG от RG Superdetki
  • Маски-шоу (2005) PC от MassTorr
  • Пятый мушкетер, или тайна железной маски / Пятый мушкетер / The Fifth Musketeer (1979) DVDRip
  • Киев. Маски революции (2014) HDTVRip от -=HD-NET=- скачать через торрент бесплатно
  • Маски / Masques (1987) DVDRip-AVC | D, A
  • Осинская Олеся - Знакомые незнакомцы 1, Мир в прорези маски (2013) MP3 скачать через торрент бесплатно
  • Осинская Олеся - Знакомые незнакомцы 2, Обратная сторона маски (2013) MP3 скачать через торрент бесплатно
  • Бэтмен без маски: Психология Темного рыцаря / Batman Unmasked: The Psychology of the Dark Knight (2008) WEBRip от Azazel


    • Комментарии (0):

      Информация

      Информация

        Посетители, находящиеся в группе Гости, не могут оставлять комментарии в данной новости.

        ↓ Меню



        ↓ Опрос

        А Вы добавили сайт в закладки?
        Да
        Не


        Top 10 за месяц (Фильмы)