.
Авторизация | Регистрация
Хочешь лучшие торренты? Добавь свой email!
Добавить




5 душ / 5 Souls (2013) HDRip скачать торрент бесплатно

Опубликовал: Админ | Дата: 27-02-2015, 11:09 | Просмотров: 323



Детально о кино
Русское название: 5 душ
Русское название в мировом прокате: 5 Souls
Создали в: 2013
Категория жанра: триллер
Главный режиссер: Бретт Доноху / Brett Donowho
Актеры: Кристина Анапау, Самира Армстронг, Стив Бачич, Иэн Боэн, Рекс Камминг, Элисон МакЭти, Джоди Мур, Меган Мюррэй, Райан С. Сэндс, Стивен Шуб, Чарльз Соломон мл., Наташа Валдез

Сюжет фильма:
Как далеко ты способен зайти ради спасения своей души? А жизни? Недобросовестный архитектор, работающий на крупную строительную компанию, впадает в кому... Блуждая в закоулках параллельного мира, он встречает четыре блуждающие души людей, погибших по его вине, а также свою душу и Дудочника, которой ставит его перед выбором: убить снова и пойти против своей совести или же самому быть убитым...




Снималось в: США
Время просмотра: 01:18:57
Перевод текста: Любительское (двухголосое) den904 и DeadSno

Файл
Кодек для видео: XviD
Качество фильма: HDRip (Исх. BDRip 720p)
Информация о видео: 624x352 (1.77:1), 23.976 fps, XviD build 50 ~1180 kbps avg, 0.22 bit/pixel
Информация о звуке: 48 kHz, MPEG Layer 3, 2 ch, ~128.00 kbps avg
Субтитры: нет

Семпл

MediaInfo

Общее
Полное имя : S:Фильмы5 душ. 2013. WEB-DLRip.avi
Формат : AVI
Формат/Информация : Audio Video Interleave
Размер файла : 744 Мбайт
Продолжительность : 1 ч. 18 м.
Общий поток : 1318 Кбит/сек
Программа кодирования : VirtualDubMod 1.5.10.3 | www.virtualdub-fr.org || (build 2550/release)
Библиотека кодирования : VirtualDubMod build 2550/release

Видео
Идентификатор : 0
Формат : MPEG-4 Visual
Профиль формата : Advanced Simple@L5
Параметр BVOP формата : 2
Параметр QPel формата : Нет
Параметр GMC формата : Без точки перехода
Параметр матрицы формата : Выборочная
Идентификатор кодека : XVID
Идентификатор кодека/Подсказка : XviD
Продолжительность : 1 ч. 18 м.
Битрейт : 1180 Кбит/сек
Ширина : 624 пикс.
Высота : 352 пикс.
Соотношение сторон : 16:9
Частота кадров : 23,976 кадр/сек
Цветовое пространство : YUV
Подвыборка цветности : 4:2:0
Битовая глубина : 8 бит
Тип развёртки : Прогрессивная
Метод сжатия : С потерями
Бит/(Пиксели*Кадры) : 0.224
Размер потока : 667 Мбайт (90%)
Библиотека кодирования : XviD 1.2.1 (UTC 2008-12-04)

Аудио
Идентификатор : 1
Формат : MPEG Audio
Версия формата : Version 1
Профиль формата : Layer 3
Идентификатор кодека : 55
Идентификатор кодека/Подсказка : MP3
Продолжительность : 1 ч. 18 м.
Вид битрейта : Постоянный
Битрейт : 128 Кбит/сек
Каналы : 2 канала
Частота : 48,0 КГц
Метод сжатия : С потерями
Размер потока : 72,3 Мбайт (10%)
Выравнивание : Соединение по промежуткам
Продолжительность промежутка : 42 мс. (1,00 видеокадр)
Время предзагрузки промежутка : 504 ms
Библиотека кодирования : LAME3.99r
Залил: Losk
Размер скачиваемого торрента: 744.10 MB (780249088 Bytes)


5 душ / 5 Souls (2013) HDRip торрент скачать бесплатно
загрузка...
Рейтинг →
 (голосов: 1, оценка 5/5, голосовать можно 1 раз )

Другие торренты по теме:

  • 5 душ / 5 Souls (2013) WEB-DLRip от CINEMANIA | L2 скачать через торрент бесплатно
  • 5 душ / 5 Souls (2013) WEB-DL 720p от CINEMANIA | L2 скачать через торрент бесплатно
  • 5 душ / 5 Souls (2013) WEB-DLRip | L2


    • Комментарии (0):

      Информация

      Информация

        Посетители, находящиеся в группе Гости, не могут оставлять комментарии в данной новости.

        ↓ Меню



        ↓ Опрос

        А Вы добавили сайт в закладки?
        Да
        Не


        Top 10 за месяц (Фильмы)