.
Авторизация | Регистрация
Хочешь лучшие торренты? Добавь свой email!
Добавить
» » Малавита / The Family (2013) BDRip 720p | Лицензия скачать через торрент бесплатно




    Малавита / The Family (2013) BDRip 720p | Лицензия скачать через торрент бесплатно

    Опубликовал: Админ | Дата: 27-02-2015, 11:09 | Просмотров: 256



    Детально о кино
    Русское название: Малавита
    Русское название в мировом прокате: The Family
    Создали в: 2013
    Категория жанра: боевик, комедия, криминал
    Главный режиссер: Люк Бессон
    Актеры: Роберт Де Ниро, Мишель Пфайффер, Томми Ли Джонс, Диана Агрон, Джон Фреда, Рикардо Сорберо, Доминик Кьянезе, Дэвид Белль, Джон Д’Лео, Джино Кафарелли

    Сюжет фильма: Что вы знаете о своих соседях? Особенно о тех, которые заявляются среди ночи… Так, однажды на тихой улочке провинциального французского городка поселился писатель по фамилии Блейк, со своим семейством и собакой Малавитой. На этом многовековое спокойствие города закончилось. Почему сгорел местный супермаркет? Чем рискует медлительный водопроводчик? Что лежит в рюкзаке у милого парня в бежевых бриджах?

    Кто бы мог представить, что на самом деле мистер Блейк — бывший глава мафии, которого власти прячут здесь от преследования. И вот в городок приезжают люди Коза Ностры…




    Снималось в: США, Франция
    Время просмотра: 01:46:56
    Тип перевода: Дублированное лицензия

    Файл
    Тип видео: MKV
    Качество фильма: BDRip 720p Рип с Blu-Ray
    Информация о видео: 4713 kb/s, 1280x536
    Информация о звуке: AC3, 640 kb/s (6 ch)





    MI

    Format : Matroska
    Format version : Version 4 / Version 2
    File size : 3.99 GiB
    Duration : 1h 46mn
    Overall bit rate : 5 343 Kbps
    Encoded date : UTC 2013-12-02 11:56:16
    Writing application : mkvmerge v6.1.0 (;Old Devil;) built on Mar 4 2013 09:10:42
    Writing library : libebml v1.3.0 libmatroska v1.4.0

    Video
    ID : 1
    Format : AVC
    Format/Info : Advanced Video Codec
    Format profile : High@L4.1
    Format settings, CABAC : Yes
    Format settings, ReFrames : 10 frames
    Codec ID : V_MPEG4/ISO/AVC
    Duration : 1h 46mn
    Bit rate : 4 713 Kbps
    Width : 1 280 pixels
    Height : 536 pixels
    Display aspect ratio : 2.40:1
    Frame rate : 25.000 fps
    Color space : YUV
    Chroma subsampling : 4:2:0
    Bit depth : 8 bits
    Scan type : Progressive
    Bits/(Pixel*Frame) : 0.275
    Stream size : 3.43 GiB (86%)
    Writing library : x264 core 130 r2273 b3065e6
    Encoding settings : cabac=1 / ref=10 / deblock=1:-3:-3 / analyse=0x3:0x133 / me=umh / subme=11 / psy=1 / psy_rd=1.00:0.20 / mixed_ref=1 / me_range=32 / chroma_me=1 / trellis=2 / 8x8dct=1 / cqm=0 / deadzone=21,11 / fast_pskip=0 / chroma_qp_offset=-3 / threads=12 / lookahead_threads=2 / sliced_threads=0 / nr=0 / decimate=0 / interlaced=0 / bluray_compat=0 / constrained_intra=0 / bframes=8 / b_pyramid=2 / b_adapt=2 / b_bias=0 / direct=3 / weightb=1 / open_gop=0 / weightp=2 / keyint=250 / keyint_min=25 / scenecut=40 / intra_refresh=0 / rc=2pass / mbtree=0 / bitrate=4713 / ratetol=1.0 / qcomp=0.60 / qpmin=0 / qpmax=69 / qpstep=4 / cplxblur=20.0 / qblur=0.5 / ip_ratio=1.40 / pb_ratio=1.30 / aq=1:1.00
    Language : English
    Default : Yes
    Forced : No

    Audio
    ID : 2
    Format : AC-3
    Format/Info : Audio Coding 3
    Mode extension : CM (complete main)
    Format settings, Endianness : Big
    Codec ID : A_AC3
    Duration : 1h 46mn
    Bit rate mode : Constant
    Bit rate : 640 Kbps
    Channel(s) : 6 channels
    Channel positions : Front: L C R, Side: L R, LFE
    Sampling rate : 48.0 KHz
    Bit depth : 16 bits
    Compression mode : Lossy
    Stream size : 490 MiB (12%)
    Language : English
    Default : Yes
    Forced : No

    Menu
    00:00:00.000 : en:1
    00:08:29.160 : en:2
    00:14:44.760 : en:3
    00:24:45.160 : en:4
    00:31:49.640 : en:5
    00:40:00.760 : en:6
    00:47:46.200 : en:7
    00:56:08.440 : en:8
    01:01:50.880 : en:9
    01:12:13.720 : en:10
    01:19:14.360 : en:11
    Скриншоты для ознакомления


    Рип: 03nazar03
    Размер скачиваемого торрента: 3.99 GB (4286006109 Bytes)

    Малавита / The Family (2013) BDRip 720p | Лицензия скачать через торрент бесплатно
    загрузка...
    Рейтинг →
     (голосов: 1, оценка 3/5, голосовать можно 1 раз )

    Другие торренты по теме:

  • Малавита / The Family (2013) CAMRip от INTERCINEMA | D скачать бесплатно через торрент
  • Малавита / The Family (2013) CAMRip-AVC | D, A скачать через торрент бесплатно
  • Малавита / The Family (2013) DVDRip | Гоблин
  • Малавита / The Family (2013) DVDRip от INTERCINEMA | Чистый звук
  • Малавита / The Family (2013) DVDRip | D | Чистый звук скачать через торрент бесплатно
  • Малавита / The Family (2013) DVD5 | Лицензия
  • Малавита / The Family (2013) DVDRip-AVC | Лицензия скачать через торрент бесплатно
  • Малавита / The Family (2013) DVDRip-AVC от New-Team | D | Лицензия скачать через торрент бесплатно


    • Комментарии (0):

      Информация

      Информация

        Посетители, находящиеся в группе Гости, не могут оставлять комментарии в данной новости.

        ↓ Меню



        ↓ Опрос

        А Вы добавили сайт в закладки?
        Да
        Не


        Top 10 за месяц (Фильмы)