.
Авторизация | Регистрация
Хочешь лучшие торренты? Добавь свой email!
Добавить
» » Спаситель / Savior (1998) DVDRip-AVC | Р, А скачать торрент бесплатно




    Спаситель / Savior (1998) DVDRip-AVC | Р, А скачать торрент бесплатно

    Опубликовал: Админ | Дата: 27-02-2015, 11:09 | Просмотров: 316



    Детально о кино
    Русское название: Спаситель
    Русское название в мировом прокате: Savior
    Снималось в: США
    Категория жанра: драма, военный
    Создали в: 1998
    Время просмотра: 01:39:16
    Перевод текста: Профессиональный (многоголосый закадровый), Авторский (одноголосый закадровый) Визгунов
    Субтитры подготовлены: русские
    Оригинальная аудиодорожка: английский

    Главный режиссер: Предраг Антониевич / Predrag Antonijevic (сценарий Оливер Стоун)

    Актеры: Деннис Куэйд, Наташа Нинкович, Стеллан Скарсгард, Настасья Кински, Паскаль Роллен, Кэтлин Фостер, Джон МакЛарен, Ирфан Менсур, Сергей Трифунович, Коста Андреевич

    Сюжет:
    Жена и ребенок офицера американской армии погибают в парижском кафе от взрыва бомбы, подложенной исламистскими террористами. Он (Куэйд) убивает несколько человек в мечети, а потом вместе со своим другом уходит в наемники.
    Через несколько лет, уже в 1993 году, он умело и безжалостно воюет на стороне сербов в бывшей Югославии, где спасает из огня безумия межнационального конфликта беременную женщину-сербку.
    Душераздирающая и жестокая драма, осуждающая эту страшную войну, которую никак не удается остановить.




    Качество фильма: DVDRip-AVC
    Тип видео: MKV
    Информация о видео: 700x572@746x572, (4:3), 25 fps, ~2425 kbps
    Информация о звуке 1: Russian: 48 kHz, AC3 Dolby Digital, 3/2 (L,C,R,l,r) LFE ch, ~384 kbps
    Информация о звуке 2: Russian: AC3 Dolby Digital, 48 kHz, 2/0 (L,R) ch, 192.00 kbps
    Информация о звуке 3: English: 48 kHz, AC3 Dolby Digital, 3/2 (L,C,R,l,r) LFE ch, ~384 kbps

    MediaInfo:
    Формат : Matroska
    Версия формата : Version 2
    Размер файла : 2,35 Гбайт
    Продолжительность : 1 ч. 39 м.
    Общий поток : 3388 Кбит/сек
    Дата кодирования : UTC 2013-11-28 01:32:10
    Программа кодирования : mkvmerge v5.1.0 (;And so it goes;) built on Nov 28 2011 23:58:28
    Библиотека кодирования : libebml v1.2.3 libmatroska v1.3.0

    Видео
    Идентификатор : 1
    Формат : AVC
    Формат/Информация : Advanced Video Codec
    Профиль формата : High@L4.1
    Параметр CABAC формата : Да
    Параметр ReFrames формата : 13 кадров
    Идентификатор кодека : V_MPEG4/ISO/AVC
    Продолжительность : 1 ч. 39 м.
    Битрейт : 2361 Кбит/сек
    Ширина : 700 пикселей
    Высота : 572 пикселя
    Соотношение сторон : 4:3
    Соотношение сторон в оригинале : 4:3
    Режим частоты кадров : Постоянный
    Частота кадров : 25,000 кадров/сек
    Цветовое пространство : YUV
    Субдискретизация насыщенности : 4:2:0
    Битовая глубина : 8 бит
    Тип развёртки : Прогрессивная
    Бит/(Пиксели*Кадры) : 0.236
    Размер потока : 1,64 Гбайт (70%)
    Библиотека кодирования : x264 core 133 r2334 a3ac64b
    Настройки программы : cabac=1 / ref=13 / deblock=1:0:0 / analyse=0x3:0x133 / me=umh / subme=11 / psy=1 / psy_rd=1.00:0.00 / mixed_ref=1 / me_range=24 / chroma_me=1 / trellis=2 / 8x8dct=1 / cqm=0 / deadzone=21,11 / fast_pskip=1 / chroma_qp_offset=-2 / threads=12 / lookahead_threads=2 / sliced_threads=0 / nr=0 / decimate=1 / interlaced=0 / bluray_compat=0 / constrained_intra=0 / bframes=8 / b_pyramid=2 / b_adapt=2 / b_bias=0 / direct=1 / weightb=1 / open_gop=0 / weightp=2 / keyint=250 / keyint_min=25 / scenecut=40 / intra_refresh=0 / rc=crf / mbtree=0 / crf=18.7 / qcomp=0.60 / qpmin=0 / qpmax=69 / qpstep=4 / ip_ratio=1.40 / pb_ratio=1.30 / aq=1:1.00
    Default : Да
    Forced : Нет
    Основные цвета : BT.601 PAL
    Характеристики трансфера : BT.470 System B, BT.470 System G
    Коэффициенты матрицы : BT.601

    Аудио #1
    Идентификатор : 2
    Формат : AC-3
    Формат/Информация : Audio Coding 3
    Расширение режима : CM (complete main)
    Параметр Endianness формата : Big
    Идентификатор кодека : A_AC3
    Продолжительность : 1 ч. 39 м.
    Вид битрейта : Постоянный
    Битрейт : 384 Кбит/сек
    Каналы : 6 каналов
    Расположение каналов : Front: L C R, Side: L R, LFE
    Частота : 48,0 КГц
    Битовая глубина : 16 бит
    Метод сжатия : С потерями
    Размер потока : 273 Мбайт (11%)
    Заголовок : MVO
    Язык : Russian
    Default : Да
    Forced : Нет

    Аудио #2
    Идентификатор : 3
    Формат : AC-3
    Формат/Информация : Audio Coding 3
    Расширение режима : CM (complete main)
    Параметр Endianness формата : Big
    Идентификатор кодека : A_AC3
    Продолжительность : 1 ч. 39 м.
    Вид битрейта : Постоянный
    Битрейт : 192 Кбит/сек
    Каналы : 2 канала
    Расположение каналов : Front: L R
    Частота : 48,0 КГц
    Битовая глубина : 16 бит
    Метод сжатия : С потерями
    Размер потока : 136 Мбайт (6%)
    Заголовок : AVO-Визгунов
    Язык : Russian
    Default : Нет
    Forced : Нет

    Аудио #3
    Идентификатор : 4
    Формат : AC-3
    Формат/Информация : Audio Coding 3
    Расширение режима : CM (complete main)
    Параметр Endianness формата : Big
    Идентификатор кодека : A_AC3
    Продолжительность : 1 ч. 39 м.
    Вид битрейта : Постоянный
    Битрейт : 384 Кбит/сек
    Каналы : 6 каналов
    Расположение каналов : Front: L C R, Side: L R, LFE
    Частота : 48,0 КГц
    Битовая глубина : 16 бит
    Метод сжатия : С потерями
    Размер потока : 273 Мбайт (11%)
    Язык : English
    Default : Нет
    Forced : Нет

    Текст
    Идентификатор : 5
    Формат : UTF-8
    Идентификатор кодека : S_TEXT/UTF8
    Идентификатор кодека/Информация : UTF-8 Plain Text
    Язык : Russian
    Default : Да
    Forced : Нет
    Скриншоты для ознакомления

    Размер скачиваемого торрента: 2.35 GB (2522641678 Bytes)

    Спаситель / Savior (1998) DVDRip-AVC | Р, А торрент скачать бесплатно
    загрузка...
    Рейтинг →
     (голосов: 1, оценка 5/5, голосовать можно 1 раз )

    Другие торренты по теме:

  • Терминатор: Да придёт спаситель / Terminator Salvation (2009) HDRip от Scarabey | D | Театральная версия
  • Стальной Дэ-О: Спаситель страны / Kangchul Dae-Oh: Kugukui Chulgabang / Iron Dae-oh: The Nations Iron Bag! (2012) HDRip | Sub
  • Александр Бушков - Сварог 11. Спаситель короны (2010) MP3
  • Спаситель / Le Sauveur (1971) DVDRip
  • Спаситель: Сын Сатаны / Избавитель: Сын Сатаны / Искупитель / The Redeemer: Son of Satan! (1978) Blu-ray Remux 1080p от MediaClub | A скачать через торрент бесплатно
  • Спаситель / Savior (1998) DVDRip-AVC | P, A скачать через торрент бесплатно
  • Терминатор: Да придёт спаситель / Terminator Salvation (2009) BDRip-AVC | D скачать через торрент бесплатно
  • Спаситель / Redeemer (2014) BDRemux 1080p от NovaLan | L1


    • Комментарии (0):

      Информация

      Информация

        Посетители, находящиеся в группе Гости, не могут оставлять комментарии в данной новости.

        ↓ Меню



        ↓ Опрос

        А Вы добавили сайт в закладки?
        Да
        Не


        Top 10 за месяц (Фильмы)