.
Авторизация | Регистрация
Хочешь лучшие торренты? Добавь свой email!
Добавить
» » Мальчик большой мамочки / Big Mammas Boy (2011) HDRip | P скачать через торрент бесплатно




    Мальчик большой мамочки / Big Mammas Boy (2011) HDRip | P скачать через торрент бесплатно

    Опубликовал: Админ | Дата: 27-02-2015, 11:09 | Просмотров: 313



    Детально о кино
    Русское название: Мальчик большой мамочки
    Русское название в мировом прокате: Big Mamma;s Boy
    Создали в: 2011
    Категория жанра: комедия
    Главный режиссер: Франко ди Кьера / Franco di Chiera
    Актеры: Френк Лолито, Холли Вэлэнс, Кармелина Ди Гульельмо, Освальдо Майон, Джордж Капиньярис, Стив Музакис, Ник Фарнелл, Кассандра Маграт, Сачин Джоаб, Джим Расселл

    Сюжет фильма:
    35-летнего Рокко до сих пор опекает, как маленького, его пожилая мать. Причем делает это настолько назойливо, что под угрозой оказываются его отношения с любимой девушкой.




    Снималось в: Австралия
    Время просмотра: 01:38:06
    Перевод текста: Профессиональное (многоголосое) Нтв

    Файл
    Кодек для видео: XviD
    Качество фильма: HDRip (Исх. BDRip 720p aAF)
    Информация о видео: 656x368 (1.78:1), 24.000 fps, XviD build 50 ~924 kbps avg, 0.16 bit/pixel
    Информация о звуке: 48 kHz, MPEG Layer 3, 2 ch, ~128.00 kbps avg
    Субтитры: нет

    Семпл

    MediaInfo

    Общее
    Полное имя : S:ФильмыМальчик большой мамочки. 2011. HDRip.avi
    Формат : AVI
    Формат/Информация : Audio Video Interleave
    Размер файла : 744 Мбайт
    Продолжительность : 1 ч. 38 м.
    Общий поток : 1061 Кбит/сек
    Программа кодирования : VirtualDubMod 1.5.10.3 | www.virtualdub-fr.org || (build 2550/release)
    Библиотека кодирования : VirtualDubMod build 2550/release

    Видео
    Идентификатор : 0
    Формат : MPEG-4 Visual
    Профиль формата : Advanced Simple@L5
    Параметр BVOP формата : 2
    Параметр QPel формата : Нет
    Параметр GMC формата : Без точки перехода
    Параметр матрицы формата : Выборочная
    Идентификатор кодека : XVID
    Идентификатор кодека/Подсказка : XviD
    Продолжительность : 1 ч. 38 м.
    Битрейт : 924 Кбит/сек
    Ширина : 656 пикс.
    Высота : 368 пикс.
    Соотношение сторон : 16:9
    Частота кадров : 24,000 кадр/сек
    Цветовое пространство : YUV
    Подвыборка цветности : 4:2:0
    Битовая глубина : 8 бит
    Тип развёртки : Прогрессивная
    Метод сжатия : С потерями
    Бит/(Пиксели*Кадры) : 0.159
    Размер потока : 648 Мбайт (87%)
    Библиотека кодирования : XviD 1.2.1 (UTC 2008-12-04)

    Аудио
    Идентификатор : 1
    Формат : MPEG Audio
    Версия формата : Version 1
    Профиль формата : Layer 3
    Идентификатор кодека : 55
    Идентификатор кодека/Подсказка : MP3
    Продолжительность : 1 ч. 38 м.
    Вид битрейта : Постоянный
    Битрейт : 128 Кбит/сек
    Каналы : 2 канала
    Частота : 48,0 КГц
    Метод сжатия : С потерями
    Размер потока : 89,8 Мбайт (12%)
    Выравнивание : Соединение по промежуткам
    Продолжительность промежутка : 42 мс. (1,00 видеокадр)
    Время предзагрузки промежутка : 504 ms
    Библиотека кодирования : LAME3.99r
    Залил: Losk
    Размер скачиваемого торрента: 744.43 MB (780593152 Bytes)


    Мальчик большой мамочки / Big Mammas Boy (2011) HDRip | P скачать через торрент бесплатно
    загрузка...
    Рейтинг →
     (голосов: 1, оценка 3/5, голосовать можно 1 раз )

    Другие торренты по теме:

  • Мальчик большой мамочки / Big Mammas Boy (2011) BDRip 720p от CINEMANIA | НТВ
  • Мальчик большой мамочки / Big Mammas Boy (2011) BDRip 1080p от CINEMANIA | НТВ


    • Комментарии (0):

      Информация

      Информация

        Посетители, находящиеся в группе Гости, не могут оставлять комментарии в данной новости.

        ↓ Меню



        ↓ Опрос

        А Вы добавили сайт в закладки?
        Да
        Не


        Top 10 за месяц (Фильмы)