.
Авторизация | Регистрация
Хочешь лучшие торренты? Добавь свой email!
Добавить
» » Форсаж / The Fast and the Furious (2001) DVD5 скачать торрент бесплатно




    Форсаж / The Fast and the Furious (2001) DVD5 скачать торрент бесплатно

    Опубликовал: Админ | Дата: 27-02-2015, 11:09 | Просмотров: 383



    Создали в: 2001
    Создали в: США, Германия / Universal Pictures, Original Film, Mediastream Film GmbH Co. Productions KG
    Категория жанра: Боевик, триллер, криминал
    Перевод текста: Дублированный лицензия
    Субтитры: Вшитые отключаемые
    Язык субтитров: Русский, английский

    Главный режиссер: Роб Коэн
    Актеры: Пол Уокер, Вин Дизель, Мишель Родригес, Джордана Брюстер, Рик Юн, Чэд Линдберг, Джонни Стронг, Мэтт Шульце, Тед Левайн, Джа Рул

    Сюжет фильма:
    Его зовут Брайан, и он — фанатик турбин и нитроускорителей. Его цель — быть принятым в автобанду легендарного Доминика Торетто, чемпиона опасных и незаконных уличных гонок. Но это лишь часть правды… Брайан также полицейский, имеющий задание войти в доверие к Торетто, подозреваемому в причастности к дерзким грабежам трейлеров, совершенным прямо с колес.

    Но чем больше доверяет нахальному новичку харизматичный Доминик, тем больше проникается герой идеалами ангелов дорог. И тем меньше ему хочется выполнять свою миссию. И вот, наступает момент, когда Брайану придется выбирать между дружбой и долгом. И выбирать на скорости в 200 километров в час…

    Дата мировой премьеры: 18 июня 2001
    Дата российской премьеры: 18 октября 2001, Ист-Вест
    Дата выхода DVD релиза: 10 марта 2009, Юниверсал Пикчерс Рус
    Дата выхода Blu-Ray релиза: 4 августа 2009, Юниверсал Пикчерс Рус



    Время просмотра: 01:46:44
    Качество фильма видео: DVD5

    Информация о видео: MPEG-2, 720x480@853x480 (NTSC 16:9), ~4925 Кбит/сек
    Информация о звуке 1: AC3 5.1, 448 Кбит/сек Русский - дублированный
    Информация о звуке 2: AC3 5.1, 448 Кбит/сек Английский - оригинал
    DVDInfo:
    Title: The Fast and the Furious (2001) DVD5 BD - DVD
    Size: 4.37 Gb ( 4 586 804,00 KBytes ) - DVD-5
    Enabled regions: 1, 2, 3, 4, 5, 6, 7, 8

    VTS_01 :
    Play Length: 01:46:44
    Video: NTSC 16:9 (720x480) VBR, Auto Letterboxed
    Audio:
    Russian (Dolby AC3, 6 ch)
    English (Dolby AC3, 6 ch)
    Subtitles:
    Russian
    Russian
    English

    * Menus Information *

    VIDEO_TS Menu
    Video:
    NTSC 16:9 (720x480) VBR
    Auto Letterboxed
    Audio:
    Not specified (Dolby AC3, 6 ch)
    Russian Language Unit :
    Title Menu

    VTS_01 Menu
    Video:
    NTSC 16:9 (720x480) VBR
    Auto Letterboxed
    Audio:
    Not specified (Dolby AC3, 6 ch)
    Russian Language Unit :
    Root Menu
    Audio Menu
    Chapter (PTT) Menu
    MediaInfo:
    Общее
    Полное имя : D:ФИЛЬМЫThe Fast and the Furious (2001) DVD5 BD - DVDVIDEO_TSVTS_01_1.VOB
    Формат : MPEG-PS
    Размер файла : 1024 Мбайт
    Продолжительность : 24 м.
    Режим общего битрейта : Переменный
    Общий поток : 5940 Кбит/сек

    Видео
    Идентификатор : 224 (0xE0)
    Формат : MPEG Video
    Версия формата : Version 2
    Профиль формата : Main@Main
    Параметр BVOP формата : Да
    Параметр матрицы формата : Выборочная
    Параметр GOP формата : Variable
    Продолжительность : 24 м.
    Вид битрейта : Переменный
    Битрейт : 4925 Кбит/сек
    Максимальный битрейт : 9800 Кбит/сек
    Ширина : 720 пикселей
    Высота : 480 пикселей
    Соотношение сторон : 16:9
    Частота кадров : 23,976 кадра/сек
    Стандарт вещания : NTSC
    Цветовое пространство : YUV
    Субдискретизация насыщенности : 4:2:0
    Битовая глубина : 8 бит
    Тип развёртки : Прогрессивная
    Порядок развёртки : 2:3 Pulldown
    Метод сжатия : С потерями
    Бит/(Пиксели*Кадры) : 0.594
    Временной код первого кадра : 01:00:00:00
    Оригинал временного кода : Group of pictures t_head
    Размер потока : 849 Мбайт (83%)

    Аудио #1
    Идентификатор : 189 (0xBD)-128 (0x80)
    Формат : AC-3
    Формат/Информация : Audio Coding 3
    Расширение режима : CM (complete main)
    Параметр Endianness формата : Big
    Режим смешивания : DVD-Video
    Продолжительность : 24 м.
    Вид битрейта : Постоянный
    Битрейт : 448 Кбит/сек
    Каналы : 6 каналов
    Расположение каналов : Front: L C R, Side: L R, LFE
    Частота : 48,0 КГц
    Битовая глубина : 16 бит
    Метод сжатия : С потерями
    Размер потока : 77,2 Мбайт (8%)

    Аудио #2
    Идентификатор : 189 (0xBD)-129 (0x81)
    Формат : AC-3
    Формат/Информация : Audio Coding 3
    Расширение режима : CM (complete main)
    Параметр Endianness формата : Big
    Режим смешивания : DVD-Video
    Продолжительность : 24 м.
    Вид битрейта : Постоянный
    Битрейт : 448 Кбит/сек
    Каналы : 6 каналов
    Расположение каналов : Front: L C R, Side: L R, LFE
    Частота : 48,0 КГц
    Битовая глубина : 16 бит
    Метод сжатия : С потерями
    Размер потока : 77,2 Мбайт (8%)

    Меню

    Доп. информация:
    Исходником данного DVD послужил Blu-Ray. Звуковая дорожка с дубляжом и субтитры взяты с того же торрент сайта. Меню создано на основе Blu-Ray. Обработка видео проходила с помощью CCE SP3 в 2 прохода.
    Бриф по изготовлению DVD:
    видео - CCE SP3, AviSynth, DGDecodeNV
    звук - Tranzcode, Sonic Foundry Soft Encode
    меню - Photoshop, DVD Architect Pro
    сборка и разборка материалов - tsMuxer, DVDReMakePro, MuxMan
    Скриншоты для ознакомления меню:

    Скриншоты для ознакомления:

    За DVD5 спасибо большое alut
    Залил: Саша 1992
    Размер скачиваемого торрента: 4.37 GB (4696887296 Bytes)

    Форсаж / The Fast and the Furious (2001) DVD5 торрент скачать бесплатно
    загрузка...
    Рейтинг →
     (голосов: 1, оценка 5/5, голосовать можно 1 раз )

    Другие торренты по теме:

  • Форсаж / Fast and the Furious, The (2001) DVDRip | D | Расширенная версия
  • Форсаж 5 / Fast Five (2011) BDRip-AVC
  • Форсаж 6 / Fast Furious 6 (2013) HDTVRip 1080p | Трейлер
  • OST - Форсаж 6 / Fast Furious 6 (2013) MP3 от AGR - Generalfilm
  • OST - Форсаж Гексалогия / The Fast and the Furious Hexalogy (2001 - 2013) MP3
  • Тройной форсаж: Токийский Дрифт / The Fast and the Furious: Tokyo Drift (2006) BDRip-AVC | iPad
  • Двойной форсаж / 2 Fast 2 Furious (2003) BDRip-AVC | iPad
  • Форсаж 4 / Fast Furious (2009) BDRip-AVC | iPad


    • Комментарии (0):

      Информация

      Информация

        Посетители, находящиеся в группе Гости, не могут оставлять комментарии в данной новости.

        ↓ Меню



        ↓ Опрос

        А Вы добавили сайт в закладки?
        Да
        Не


        Top 10 за месяц (Фильмы)