.
Авторизация | Регистрация
Хочешь лучшие торренты? Добавь свой email!
Добавить
» » Мандинго / Mandingo (1975) BDRip-AVC от MediaClub | A скачать через торрент бесплатно




    Мандинго / Mandingo (1975) BDRip-AVC от MediaClub | A скачать через торрент бесплатно

    Опубликовал: Админ | Дата: 27-02-2015, 11:09 | Просмотров: 730



    Детально о кино
    Русское название: Мандинго
    Русское название в мировом прокате: Mandingo
    Создали в: 1975
    Категория жанра: Боевик, мелодрама
    Главный режиссер: Ричард Флайшер
    Актеры: Джеймс Мейсон, Сьюзен Джордж, Перри Кинг, Ричард Уорд, Бренда Сайкес, Кен Нортон, Лиллиэн Хейман, Рой Пул, Чи-Ту Кумбука, Пол Бенедикт, Сильвестр Сталлоне

    Сюжет фильма:
    Новый Орлеан, 1840 год. История об отношениях на одной американской ферме. Рабы и их хозяева. Что будет, если чёрный работник влюбится в белую девушку из приличной семьи? Что будет, если она забеременеет от него?



    Снималось в: США, Paramount Pictures, Dino De Laurentiis Productions
    Время просмотра: 02:06:48
    Перевод текста: Авторский одноголосый ( В. Рутилов)

    Файл
    Кодек для видео: x264
    Качество фильма: BDRip-AVC
    Информация о видео: MPEG-4 AVC, 3350 Кбит/с, 1024x576, 23.976 кадр/с
    Информация о звуке: Русский, английский (AC3, 2 ch, 192 Кбит/с)
    Субтитры: Английские

    Семпл

    MI
    x264 info: frame I:1029 Avg QP:16.81 size: 88800
    x264 info: frame P:44847 Avg QP:19.66 size: 34546
    x264 info: frame B:136548 Avg QP:20.84 size: 11319

    Format : Matroska
    Format version : Version 4 / Version 2
    File size : 3.31 GiB
    Duration : 2h 6mn
    Overall bit rate : 3 736 Kbps
    Movie name : -=MediaClub - Odessit=-
    Encoded date : UTC 2013-11-28 08:14:39
    Writing application : mkvmerge v6.2.0 (;Promised Land;) built on Apr 28 2013 12:22:01
    Writing library : libebml v1.3.0 libmatroska v1.4.0

    Video
    ID : 1
    Format : AVC
    Format/Info : Advanced Video Codec
    Format profile : High@L4.1
    Format settings, CABAC : Yes
    Format settings, ReFrames : 10 frames
    Codec ID : V_MPEG4/ISO/AVC
    Duration : 2h 6mn
    Bit rate : 3 350 Kbps
    Width : 1 024 pixels
    Height : 576 pixels
    Display aspect ratio : 16:9
    Frame rate : 23.976 fps
    Color space : YUV
    Chroma subsampling : 4:2:0
    Bit depth : 8 bits
    Scan type : Progressive
    Bits/(Pixel*Frame) : 0.237
    Stream size : 2.90 GiB (88%)
    Writing library : x264 core 130 r2273 b3065e6
    Encoding settings : cabac=1 / ref=10 / deblock=1:-3:-3 / analyse=0x3:0x133 / me=umh / subme=11 / psy=1 / psy_rd=1.00:0.20 / mixed_ref=1 / me_range=48 / chroma_me=1 / trellis=2 / 8x8dct=1 / cqm=0 / deadzone=21,11 / fast_pskip=0 / chroma_qp_offset=-3 / threads=6 / lookahead_threads=1 / sliced_threads=0 / nr=0 / decimate=0 / interlaced=0 / bluray_compat=0 / constrained_intra=0 / bframes=9 / b_pyramid=2 / b_adapt=2 / b_bias=0 / direct=3 / weightb=1 / open_gop=0 / weightp=2 / keyint=240 / keyint_min=23 / scenecut=40 / intra_refresh=0 / rc=2pass / mbtree=0 / bitrate=3350 / ratetol=1.0 / qcomp=0.60 / qpmin=0 / qpmax=69 / qpstep=4 / cplxblur=20.0 / qblur=0.5 / ip_ratio=1.40 / pb_ratio=1.30 / aq=1:1.00
    Language : English

    Audio #1
    ID : 2
    Format : AC-3
    Format/Info : Audio Coding 3
    Mode extension : CM (complete main)
    Codec ID : A_AC3
    Duration : 2h 6mn
    Bit rate mode : Constant
    Bit rate : 192 Kbps
    Channel(s) : 2 channels
    Channel positions : Front: L R
    Sampling rate : 48.0 KHz
    Bit depth : 16 bits
    Compression mode : Lossy
    Stream size : 174 MiB (5%)
    Title : авторский (одноголосый, закадровый) В. Рутилов
    Language : Russian

    Audio #2
    ID : 3
    Format : AC-3
    Format/Info : Audio Coding 3
    Mode extension : CM (complete main)
    Codec ID : A_AC3
    Duration : 2h 6mn
    Bit rate mode : Constant
    Bit rate : 192 Kbps
    Channel(s) : 2 channels
    Channel positions : Front: L R
    Sampling rate : 48.0 KHz
    Bit depth : 16 bits
    Compression mode : Lossy
    Stream size : 174 MiB (5%)
    Language : English

    Text
    ID : 4
    Format : UTF-8
    Codec ID : S_TEXT/UTF8
    Codec ID/Info : UTF-8 Plain Text
    Language : English

    Menu
    00:00:00.000 : :Chapter 01
    00:05:37.962 : :Chapter 02
    00:13:24.803 : :Chapter 03
    00:21:23.115 : :Chapter 04
    00:25:02.667 : :Chapter 05
    00:33:53.823 : :Chapter 06
    00:38:37.273 : :Chapter 07
    00:44:35.714 : :Chapter 08
    00:52:38.113 : :Chapter 09
    00:57:51.759 : :Chapter 10
    01:04:38.499 : :Chapter 11
    01:09:35.963 : :Chapter 12
    01:20:43.088 : :Chapter 13
    01:25:03.014 : :Chapter 14
    01:30:51.195 : :Chapter 15
    01:35:55.541 : :Chapter 16
    01:43:58.064 : :Chapter 17
    01:51:13.416 : :Chapter 18
    01:59:31.789 : :Chapter 19
    02:05:21.055 : :Chapter 20

    Скриншоты для ознакомления


    Релиз подготовил: |
    Размер скачиваемого торрента: 3.31 GB (3553451561 Bytes)

    Мандинго / Mandingo (1975) BDRip-AVC от MediaClub | A скачать через торрент бесплатно
    загрузка...
    Рейтинг →
     (голосов: 1, оценка 5/5, голосовать можно 1 раз )

    Другие торренты по теме:

  • Мандинго / Mandingo (1975) BDRip от HQCLUB
  • Мандинго / Mandingo / 1975 / АП (Рутилов), ЛО / BDRip (720p)


    • Комментарии (0):

      Информация

      Информация

        Посетители, находящиеся в группе Гости, не могут оставлять комментарии в данной новости.

        ↓ Меню



        ↓ Опрос

        А Вы добавили сайт в закладки?
        Да
        Не


        Top 10 за месяц (Фильмы)