.
Авторизация | Регистрация
Хочешь лучшие торренты? Добавь свой email!
Добавить
» » Орудия смерти: Город костей / The Mortal Instruments: City of Bones (2013) BDRip от New-Team | US-Transfer | iTunes Russian скачать торрент бесплатно




    Орудия смерти: Город костей / The Mortal Instruments: City of Bones (2013) BDRip от New-Team | US-Transfer | iTunes Russian скачать торрент бесплатно

    Опубликовал: Админ | Дата: 27-02-2015, 11:09 | Просмотров: 387

    Орудия смерти: Город костей
    The Mortal Instruments: City of Bones



    Снималось в: США, Германия
    Категория жанра: Фэнтези, боевик, драма, мелодрама
    Создали в: 2013
    Время просмотра: 02:10:15

    Перевод текста: Профессиональный (дублированный) - iTunes Russian
    Субтитры подготовлены: нет
    Главный режиссер: Харольд Цварт / Harald Zwart

    Актеры: Джейми Кэмпбелл Бауэр, Лили Коллинз, Лина Хиди, Эйдан Тернер, Джонатан Рис-Майерс, Роберт Шиэн, Джемайма Уэст, Кевин Зегерс, Джаред Харрис, Кевин Дюран, Си Си Эйч Паундер, Гарри Ван Горкум, Стивен Р. Харт, Годфри Гао, Чад Коннелл

    Сюжет: Клэри Фрэй всегда считала себя самой обыкновенной девушкой, пока не выяснилось, что она — потомок древнего рода Сумеречных Охотников, тайной касты воинов-полуангелов, защищающих наш мир от демонов. Когда мама Клэри исчезает, девушка объединяется с Сумеречными охотниками, чтобы спасти ее. Так начинается ее опасное знакомство с иной реальностью, в которой существуют демоны, маги, вампиры, оборотни и другие смертоносные существа.

    Автор рипа: _Flash



    Релиз:

    Качество фильма видео: BDRip
    Тип видео видео: AVI

    Информация о видео: 720x304, 23.976 fps, XviD build 73 ~2010 kbps avg, 0.383 bit/pixel
    Информация о звуке: 48 kHz, AC3 Dolby Digital, 3/2 (L,C,R,l,r) LFE ch, ~384.00 kbps avg

    Отчёт MediaInfo

    Общее
    Полное имя : D:The.Mortal.Instruments.City.of.Bones.2013.BDRip.By_Flash.avi
    Формат : AVI
    Формат/Информация : Audio Video Interleave
    Профиль формата : OpenDML
    Размер файла : 2,19 Гбайт
    Продолжительность : 2 ч. 10 м.
    Общий поток : 2406 Кбит/сек
    Программа кодирования : VirtualDubMod 1.5.10.3 | www.virtualdub-fr.org || (build 2550/release)
    Библиотека кодирования : VirtualDubMod build 2550/release

    Видео
    Идентификатор : 0
    Формат : MPEG-4 Visual
    Профиль формата : Advanced Simple@L5
    Параметр BVOP формата : 1
    Параметр QPel формата : Нет
    Параметр GMC формата : Без точки перехода
    Параметр матрицы формата : Выборочная
    Идентификатор кодека : XVID
    Идентификатор кодека/Подсказка : XviD
    Продолжительность : 2 ч. 10 м.
    Битрейт : 2010 Кбит/сек
    Ширина : 720 пикселей
    Высота : 304 пикселя
    Соотношение сторон : 2,35:1
    Частота кадров : 23,976 кадра/сек
    Цветовое пространство : YUV
    Субдискретизация насыщенности : 4:2:0
    Битовая глубина : 8 бит
    Тип развёртки : Прогрессивная
    Метод сжатия : С потерями
    Бит/(Пиксели*Кадры) : 0.383
    Размер потока : 1,83 Гбайт (84%)
    Библиотека кодирования : XviD 73

    Аудио
    Идентификатор : 1
    Формат : AC-3
    Формат/Информация : Audio Coding 3
    Расширение режима : CM (complete main)
    Параметр Endianness формата : Big
    Идентификатор кодека : 2000
    Продолжительность : 2 ч. 10 м.
    Вид битрейта : Постоянный
    Битрейт : 384 Кбит/сек
    Каналы : 6 каналов
    Расположение каналов : Front: L C R, Side: L R, LFE
    Частота : 48,0 КГц
    Битовая глубина : 16 бит
    Метод сжатия : С потерями
    Размер потока : 358 Мбайт (16%)
    Выравнивание : Разделение по промежуткам
    Продолжительность промежутка : 42 мс. (1,00 видеокадр)
    Время предзагрузки промежутка : 500 мс.



    Скриншоты для ознакомления



    Залил: Flash_
    Размер скачиваемого торрента: 2.19 GB (2350944256 Bytes)

    Орудия смерти: Город костей / The Mortal Instruments: City of Bones (2013) BDRip от New-Team | US-Transfer | iTunes Russian торрент скачать бесплатно
    загрузка...
    Рейтинг →
     (голосов: 1, оценка 5/5, голосовать можно 1 раз )

    Другие торренты по теме:

  • Орудия смерти: Город костей / The Mortal Instruments: City of Bones (2013) HD 1080p | Трейлер
  • Орудия смерти: Город костей / The Mortal Instruments: City of Bones (2013) CAMRip скачать через торрент бесплатно
  • OST - Орудия смерти: Город костей / The Mortal Instruments: City of Bones (2013) MP3 скачать через торрент бесплатно
  • Орудия смерти: Город костей / The Mortal Instruments: City of Bones (2013) HDRip | Звук с CAMRip
  • Орудия смерти: Город костей / The Mortal Instruments: City of Bones (2013) DVDRip | Звук с CAMRip
  • Орудия смерти: Город костей / The Mortal Instruments: City of Bones (2013) WEB-DL 1080p | Звук с CAMRip
  • Орудия смерти: Город костей / The Mortal Instruments: City of Bones (2013) BDRip от Rulya74 скачать через торрент бесплатно
  • Орудия смерти: Город костей / The Mortal Instruments: City of Bones (2013) BDRip-AVC | P скачать через торрент бесплатно


    • Комментарии (0):

      Информация

      Информация

        Посетители, находящиеся в группе Гости, не могут оставлять комментарии в данной новости.

        ↓ Меню



        ↓ Опрос

        А Вы добавили сайт в закладки?
        Да
        Не


        Top 10 за месяц (Фильмы)