.
Авторизация | Регистрация
Хочешь лучшие торренты? Добавь свой email!
Добавить
» » Элизиум. Рай не на земле / Elysium (2013) BDRip 720p | Лицензия скачать через торрент бесплатно




    Элизиум. Рай не на земле / Elysium (2013) BDRip 720p | Лицензия скачать через торрент бесплатно

    Опубликовал: Админ | Дата: 27-02-2015, 11:09 | Просмотров: 280



    Детально о кино
    Русское название: Элизиум: Рай не на Земле
    Русское название в мировом прокате: Elysium
    Создали в: 2013
    Категория жанра: Фантастика, боевик, триллер, драма
    Снималось в: США, Media Rights Capital, QED International, Simon Kinberg Productions, Sony Pictures Entertainment (SPE), TriStar Pictures
    Главный режиссер: Нил Бломкамп
    Актеры: Мэтт Дэймон, Джоди Фостер, Шарлто Копли, Алиси Брага, Диего Луна, Вагнер Моура, Уильям Фихтнер, Карли Поуп, Майкл Шэнкс, Талиса Сото

    Сюжет фильма: В 2154 году существует два класса людей: очень богатые, живущие на чистой, созданной руками человека, космической станции под названием Элизиум и остальные, живущие на перенаселённой разрушенной Земле. Безжалостный правительственный чиновник Министр Роудс не остановится ни перед чем для применения анти-иммиграционных законов и сохранения роскошного образа жизни граждан Элизиума. Когда неудачника Макса загоняют в угол, он соглашается взять на себя сложную миссию, которая в случае успеха не только спасёт ему жизнь, но и может привести к равенству этих поляризованных миров.



    Файл
    Качество фильма: BDRip (720p)
    Информация о видео: MPEG-4 AVC, 5033 Кбит/с, 1280x536
    Информация о звуке: Русский, украинский (AC3, 6 ch, 640 Кбит/с), английский (DTS, 6 ch, 1510 Кбит/с)
    Размер скачиваемого торрента: 5.58 ГБ
    Время просмотра: 01:49:04
    Перевод текста: Дублированный лицензия
    Субтитры: Русские, английские

    Семпл
    MI
    Общее
    Уникальный идентификатор : 206331914074020237722264741046053265563 (0x9B3A14C832DABB7387E6EAC37DA0609B)
    Полное имя : D:New folderElysium.2013.BluRay.720p.DTS.x264-CHD.mkv
    Формат : Matroska
    Версия формата : Version 2
    Размер файла : 5,99 Гбайт
    Продолжительность : 1 ч. 49 м.
    Общий поток : 7824 Кбит/сек
    Название фильма : Elysium (2013)
    Дата кодирования : UTC 2013-11-26 05:57:21
    Программа кодирования : mkvmerge v6.3.0 (;You can;t stop me!;) built on Jun 28 2013 20:09:41
    Библиотека кодирования : libebml v1.3.0 libmatroska v1.4.0

    Видео
    Идентификатор : 1
    Формат : AVC
    Формат/Информация : Advanced Video Codec
    Профиль формата : High@L4.1
    Параметр CABAC формата : Да
    Параметр ReFrames формата : 11 кадров
    Идентификатор кодека : V_MPEG4/ISO/AVC
    Продолжительность : 1 ч. 49 м.
    Битрейт : 5033 Кбит/сек
    Ширина : 1280 пикселей
    Высота : 536 пикселей
    Соотношение сторон : 2,40:1
    Режим частоты кадров : Постоянный
    Частота кадров : 23,976 кадра/сек
    Цветовое пространство : YUV
    Субдискретизация насыщенности : 4:2:0
    Битовая глубина : 8 бит
    Тип развёртки : Прогрессивная
    Бит/(Пиксели*Кадры) : 0.306
    Размер потока : 3,73 Гбайт (62%)
    Заголовок : hahay0yo@CHD
    Библиотека кодирования : x264 core 138 r2356 a1d3d17
    Настройки программы : cabac=1 / ref=11 / deblock=1:-3:-3 / analyse=0x3:0x113 / me=umh / subme=10 / psy=1 / psy_rd=1.00:0.05 / mixed_ref=1 / me_range=32 / chroma_me=1 / trellis=2 / 8x8dct=1 / cqm=0 / deadzone=21,11 / fast_pskip=0 / chroma_qp_offset=-2 / threads=18 / lookahead_threads=1 / sliced_threads=0 / nr=0 / decimate=1 / interlaced=0 / bluray_compat=0 / constrained_intra=0 / bframes=4 / b_pyramid=2 / b_adapt=2 / b_bias=0 / direct=3 / weightb=1 / open_gop=0 / weightp=2 / keyint=250 / keyint_min=23 / scenecut=40 / intra_refresh=0 / rc=2pass / mbtree=0 / bitrate=5033 / ratetol=1.0 / qcomp=0.70 / qpmin=0 / qpmax=69 / qpstep=4 / cplxblur=20.0 / qblur=0.5 / ip_ratio=1.40 / pb_ratio=1.30 / aq=2:1.00
    Язык : English
    Default : Да
    Forced : Нет

    Аудио #1
    Идентификатор : 2
    Формат : AC-3
    Формат/Информация : Audio Coding 3
    Расширение режима : CM (complete main)
    Параметр Endianness формата : Big
    Идентификатор кодека : A_AC3
    Продолжительность : 1 ч. 49 м.
    Вид битрейта : Постоянный
    Битрейт : 640 Кбит/сек
    Каналы : 6 каналов
    Расположение каналов : Front: L C R, Side: L R, LFE
    Частота : 48,0 КГц
    Битовая глубина : 16 бит
    Метод сжатия : С потерями
    Размер потока : 502 Мбайт (8%)
    Язык : Russian
    Default : Да
    Forced : Нет

    Аудио #2
    Идентификатор : 3
    Формат : AC-3
    Формат/Информация : Audio Coding 3
    Расширение режима : CM (complete main)
    Параметр Endianness формата : Big
    Идентификатор кодека : A_AC3
    Продолжительность : 1 ч. 49 м.
    Вид битрейта : Постоянный
    Битрейт : 640 Кбит/сек
    Каналы : 6 каналов
    Расположение каналов : Front: L C R, Side: L R, LFE
    Частота : 48,0 КГц
    Битовая глубина : 16 бит
    Метод сжатия : С потерями
    Размер потока : 502 Мбайт (8%)
    Язык : Russian
    Default : Нет
    Forced : Нет

    Аудио #3
    Идентификатор : 4
    Формат : DTS
    Формат/Информация : Digital Theater Systems
    Режим : 16
    Параметр Endianness формата : Big
    Идентификатор кодека : A_DTS
    Продолжительность : 1 ч. 49 м.
    Вид битрейта : Постоянный
    Битрейт : 1509 Кбит/сек
    Каналы : 6 каналов
    Расположение каналов : Front: L C R, Side: L R, LFE
    Частота : 48,0 КГц
    Битовая глубина : 24 бит
    Метод сжатия : С потерями
    Размер потока : 1,16 Гбайт (19%)
    Заголовок : English DTS 5.1 1509Kbps
    Язык : English
    Default : Нет
    Forced : Нет

    Текст #1
    Идентификатор : 5
    Формат : UTF-8
    Идентификатор кодека : S_TEXT/UTF8
    Идентификатор кодека/Информация : UTF-8 Plain Text
    Заголовок : Forced
    Язык : Russian
    Default : Да
    Forced : Нет

    Текст #2
    Идентификатор : 6
    Формат : UTF-8
    Идентификатор кодека : S_TEXT/UTF8
    Идентификатор кодека/Информация : UTF-8 Plain Text
    Язык : Russian
    Default : Нет
    Forced : Нет

    Текст #3
    Идентификатор : 7
    Формат : UTF-8
    Идентификатор кодека : S_TEXT/UTF8
    Идентификатор кодека/Информация : UTF-8 Plain Text
    Заголовок : Forced
    Язык : English
    Default : Нет
    Forced : Нет

    Текст #4
    Идентификатор : 8
    Формат : UTF-8
    Идентификатор кодека : S_TEXT/UTF8
    Идентификатор кодека/Информация : UTF-8 Plain Text
    Язык : English
    Default : Нет
    Forced : Нет

    Меню
    00:00:00.000 : en:00:00:00.000
    00:07:02.589 : en:00:07:02.589
    00:11:59.344 : en:00:11:59.344
    00:19:27.625 : en:00:19:27.625
    00:25:34.825 : en:00:25:34.825
    00:30:02.342 : en:00:30:02.342
    00:39:22.068 : en:00:39:22.068
    00:57:43.960 : en:00:57:43.960
    01:00:59.197 : en:01:00:59.197
    01:04:09.637 : en:01:04:09.637
    01:07:22.664 : en:01:07:22.664
    01:10:34.147 : en:01:10:34.147
    01:16:59.865 : en:01:16:59.865
    01:22:50.132 : en:01:22:50.132
    01:30:19.914 : en:01:30:19.914
    01:35:44.530 : en:01:35:44.530

    Скриншоты для ознакомления



    Размер скачиваемого торрента: 5.99 GB (6430586888 Bytes)

    Элизиум. Рай не на земле / Elysium (2013) BDRip 720p | Лицензия скачать через торрент бесплатно
    загрузка...
    Рейтинг →
     (голосов: 1, оценка 5/5, голосовать можно 1 раз )

    Другие торренты по теме:

  • Элизиум: Рай не на Земле / Elysium (2013) CAMRip
  • Элизиум: Рай не на Земле / Elysium (2013) CAMRip
  • Элизиум: Рай не на Земле / Elysium (2013) CAMRip *PROPER* от INTERCINEMA
  • Элизиум: Рай не на Земле / Elysium (2013) TS
  • Элизиум: Рай не на Земле / Elysium (2013) TS *PROPER* от INTERCINEMA
  • Элизиум: Рай не на Земле / Elysium (2013) DVDScreener
  • Элизиум: Рай не на Земле / Elysium (2013) WEBRip
  • Элизиум: Рай не на Земле / Elysium (2013) WEBRip от Один 777 скачать через торрент бесплатно


    • Комментарии (0):

      Информация

      Информация

        Посетители, находящиеся в группе Гости, не могут оставлять комментарии в данной новости.

        ↓ Меню



        ↓ Опрос

        А Вы добавили сайт в закладки?
        Да
        Не


        Top 10 за месяц (Фильмы)