.
Авторизация | Регистрация
Хочешь лучшие торренты? Добавь свой email!
Добавить
» » Сладкий ноябрь / Sweet November (2001) WEB-DLRip 720p | D скачать торрент бесплатно




    Сладкий ноябрь / Sweet November (2001) WEB-DLRip 720p | D скачать торрент бесплатно

    Опубликовал: Админ | Дата: 27-02-2015, 11:09 | Просмотров: 729

    Сладкий ноябрь
    Sweet November



    Создали в: 2001
    Снималось в: США
    Категория жанра: драма, мелодрама
    Время просмотра: 02:00:12
    Перевод текста: Профессиональный (полное дублирование) R5 Оригинальная звуковая дорожка
    Субтитры подготовлены: Русские (R5), Английские (*srt)

    Главный режиссер: Пэт О’Коннор / Pat O;Connor

    Актеры: Киану Ривз, Шарлиз Терон, Джейсон Айзекс, Грег Джерманн, Лиам Эйкен, Роберт Джой, Лорен Грэм, Майкл Розенбаум, Фрэнк Ланджелла, Джейсон Кравиц...

    Сюжет: Затянутый в строгий костюм рекламный агент-трудоголик Нельсон Мосс бежит по жизни вприпрыжку и не представляет себе другого стиля жизни. Но живая эксцентричная Сара Дивер, наполовину – соблазнительница, наполовину – философ, очень даже представляет.
    Если у нее получится, Нельсон станет ее новой победой в серии исправленных людских судеб. Каждый месяц она проводит с новым пациентом, которому требуется помощь. Никаких обязательств. Никакого давления. Никакой зависимости. И никакой влюбленности.

    Качество фильма: WEB-DLRip 720p
    Тип видео: MKV
    Информация о звуке кодек: AC3

    Информация о видео: 1274x720 at 23.976 fps, x264@L4.1, ~8800 kbps avg
    Информация о звуке #1: Russian: 48 kHz, AC3, 3/2 (L,C,R,l,r) LFE ch, ~384.00 kbps avg |R5|
    Информация о звуке #2: English: 48 kHz, AC3, 3/2 (L,C,R,l,r) LFE ch, ~384.00 kbps avg



    MInfo

    Общее
    Уникальный идентификатор : 234911680044049382067134449547731039305 (0xB0BA580910899D72B2D45ED16FA47449)
    Полное имя : C:DownaloadSweet.November.2001.720p.WEB-DLRip.Rus.Eng.HDCLUB.mkv
    Формат : Matroska
    Версия формата : Version 2
    Размер файла : 8,23 Гбайт
    Продолжительность : 2 ч. 0 м.
    Общий поток : 9795 Кбит/сек
    Название фильма : Sweet November (2001) - Release for HDCLUB by doclogan
    Дата кодирования : UTC 2012-10-26 13:08:46
    Программа кодирования : mkvmerge v5.7.0 (;The Whirlwind;) built on Jul 8 2012 20:08:51
    Библиотека кодирования : libebml v1.2.3 libmatroska v1.3.0

    Видео
    Идентификатор : 1
    Формат : AVC
    Формат/Информация : Advanced Video Codec
    Профиль формата : High@L4.1
    Параметр CABAC формата : Да
    Параметр ReFrames формата : 8 кадров
    Идентификатор кодека : V_MPEG4/ISO/AVC
    Продолжительность : 2 ч. 0 м.
    Битрейт : 8832 Кбит/сек
    Ширина : 1274 пикселя
    Высота : 720 пикселей
    Соотношение сторон : 16:9
    Режим частоты кадров : Постоянный
    Частота кадров : 23,976 кадра/сек
    Цветовое пространство : YUV
    Субдискретизация насыщенности : 4:2:0
    Битовая глубина : 8 бит
    Тип развёртки : Прогрессивная
    Бит/(Пиксели*Кадры) : 0.402
    Размер потока : 7,42 Гбайт (90%)
    Заголовок : Release for HDCLUB by doclogan
    Библиотека кодирования : x264 core 128 r2216 198a7ea
    Настройки программы : cabac=1 / ref=8 / deblock=1:-2:-2 / analyse=0x3:0x113 / me=umh / subme=11 / psy=1 / psy_rd=1.00:0.05 / mixed_ref=1 / me_range=32 / chroma_me=1 / trellis=2 / 8x8dct=1 / cqm=0 / deadzone=21,11 / fast_pskip=0 / chroma_qp_offset=-4 / threads=6 / lookahead_threads=1 / sliced_threads=0 / nr=0 / decimate=1 / interlaced=0 / bluray_compat=0 / constrained_intra=0 / bframes=8 / b_pyramid=2 / b_adapt=2 / b_bias=0 / direct=1 / weightb=1 / open_gop=0 / weightp=2 / keyint=240 / keyint_min=22 / scenecut=40 / intra_refresh=0 / rc_lookahead=60 / rc=crf / mbtree=0 / crf=18.0 / qcomp=0.60 / qpmin=0 / qpmax=69 / qpstep=4 / vbv_maxrate=50000 / vbv_bufsize=62500 / crf_max=0.0 / nal_hrd=none / ip_ratio=1.40 / pb_ratio=1.30 / aq=2:0.90
    Язык : English
    Default : Да
    Forced : Нет

    Аудио #1
    Идентификатор : 2
    Формат : AC-3
    Формат/Информация : Audio Coding 3
    Расширение режима : CM (complete main)
    Параметр Endianness формата : Big
    Идентификатор кодека : A_AC3
    Продолжительность : 2 ч. 0 м.
    Вид битрейта : Постоянный
    Битрейт : 384 Кбит/сек
    Каналы : 6 каналов
    Расположение каналов : Front: L C R, Side: L R, LFE
    Частота : 48,0 КГц
    Битовая глубина : 16 бит
    Метод сжатия : С потерями
    Размер потока : 330 Мбайт (4%)
    Заголовок : DD 5.1 @ 384 kbps – Дубляж (R5)
    Язык : Russian
    Default : Да
    Forced : Нет

    Аудио #2
    Идентификатор : 3
    Формат : AC-3
    Формат/Информация : Audio Coding 3
    Расширение режима : CM (complete main)
    Параметр Endianness формата : Big
    Идентификатор кодека : A_AC3
    Продолжительность : 2 ч. 0 м.
    Вид битрейта : Постоянный
    Битрейт : 384 Кбит/сек
    Каналы : 6 каналов
    Расположение каналов : Front: L C R, Side: L R, LFE
    Частота : 48,0 КГц
    Битовая глубина : 16 бит
    Метод сжатия : С потерями
    Размер потока : 330 Мбайт (4%)
    Заголовок : DD 5.1 @ 384 kbps
    Язык : English
    Default : Нет
    Forced : Нет

    Текст #1
    Идентификатор : 4
    Формат : UTF-8
    Идентификатор кодека : S_TEXT/UTF8
    Идентификатор кодека/Информация : UTF-8 Plain Text
    Заголовок : R5
    Язык : Russian
    Default : Нет
    Forced : Нет

    Текст #2
    Идентификатор : 5
    Формат : UTF-8
    Идентификатор кодека : S_TEXT/UTF8
    Идентификатор кодека/Информация : UTF-8 Plain Text
    Язык : English
    Default : Нет
    Forced : Нет

    Меню
    00:00:00.000 : en:00:00:00.000
    00:03:10.107 : en:00:03:10.107
    00:05:35.335 : en:00:05:35.335
    00:08:43.941 : en:00:08:43.941
    00:10:48.357 : en:00:10:48.357
    00:13:50.706 : en:00:13:50.706
    00:16:36.622 : en:00:16:36.622
    00:21:35.963 : en:00:21:35.963
    00:24:50.574 : en:00:24:50.574
    00:26:42.728 : en:00:26:42.728
    00:30:16.733 : en:00:30:16.733
    00:35:26.543 : en:00:35:26.543
    00:40:05.739 : en:00:40:05.739
    00:43:07.504 : en:00:43:07.504
    00:47:23.677 : en:00:47:23.677
    00:51:00.435 : en:00:51:00.435
    00:55:55.689 : en:00:55:55.689
    00:58:36.725 : en:00:58:36.725
    01:02:49.895 : en:01:02:49.895
    01:05:50.117 : en:01:05:50.117
    01:08:22.686 : en:01:08:22.686
    01:14:49.781 : en:01:14:49.781
    01:20:44.803 : en:01:20:44.803
    01:24:17.140 : en:01:24:17.140
    01:25:52.110 : en:01:25:52.110
    01:30:01.360 : en:01:30:01.360
    01:35:18.886 : en:01:35:18.886
    01:36:56.358 : en:01:36:56.358
    01:40:46.296 : en:01:40:46.296
    01:45:48.265 : en:01:45:48.265
    01:48:11.200 : en:01:48:11.200
    01:54:17.232 : en:01:54:17.232


    Скриншоты для ознакомления


    Размер скачиваемого торрента: 8.23 GB (8832332224 Bytes)

    Сладкий ноябрь / Sweet November (2001) WEB-DLRip 720p | D торрент скачать бесплатно
    загрузка...
    Рейтинг →
     (голосов: 1, оценка 3/5, голосовать можно 1 раз )

    Другие торренты по теме:

  • Сладкий ноябрь / Sweet November (2001) WEB-DLRip от -=HD-NET=- | КПК | D скачать через торрент бесплатно
  • Сладкий ноябрь / Sweet November (2001) WEB-DLRip-AVC от Scarabey | D
  • Сладкий ноябрь / Sweet November (2001)


    • Комментарии (0):

      Информация

      Информация

        Посетители, находящиеся в группе Гости, не могут оставлять комментарии в данной новости.

        ↓ Меню



        ↓ Опрос

        А Вы добавили сайт в закладки?
        Да
        Не


        Top 10 за месяц (Фильмы)