.
Авторизация | Регистрация
Хочешь лучшие торренты? Добавь свой email!
Добавить
» » Дом храбрых / Home of the Brave (2006) BDRip-AVC от MediaClub | P скачать торрент бесплатно




    Дом храбрых / Home of the Brave (2006) BDRip-AVC от MediaClub | P скачать торрент бесплатно

    Опубликовал: Админ | Дата: 27-02-2015, 11:09 | Просмотров: 318



    Детально о кино
    Русское название: Дом храбрых
    Русское название в мировом прокате: Home of the Brave
    Создали в: 2006
    Категория жанра: Боевик, драма, военный
    Главный режиссер: Ирвин Уинклер
    Актеры: Сэмюэл Л. Джексон, Джессика Бил, Брайан Прэсли, Фифти Сент, Кристина Риччи, Чад Майкл Мюррэй, Виктория Роуэлл, Джеффри Нордлинг, Вито Руджинис, Сэм Джонс III, Джеймс МакДональд, Сандра Нельсон, Джек Серино, Брендан Уэйн, Мохамед Зинатала, Ричард Де Майо, Киара Джонсон, Х.В. Тони Энтони, Келли Б. Эвистон, Джэймс М. Тилли, Дженна Уильямс, Дэррик Уилкенс, Джойс М. Камерон, Сюзанн Нилс, Венус Делкамбри, Джордан Сантьяго, Энн Селко, Сесил Эллсворт, Кириша Маршалл, Рон Форд, Джинджер Юинг, Дэннис Пэтчин, Дженна Андерсон

    Сюжет фильма:
    4 солдата пытаются смириться с реальностью после возвращения домой из Ирака. Первая мать одиночка потеряла на войне руку, второй врач видел слишком много смертей, третий не может забыть как случайно убил арабскую женщину, а четвертый потерял там лучшего друга.



    Снималось в: США, Марокко, Emmett/Furla Films, Metro-Goldwyn-Mayer (MGM), Millennium Films, North by Northwest Entertainment, Severe Entertainment, Winkler Films, Zak Productions
    Время просмотра: 01:46:44
    Перевод текста: Профессиональный многоголосый

    Файл
    Кодек для видео: x264
    Качество фильма: BDRip-AVC
    Информация о видео: MPEG-4 AVC, 3002 Кбит/с, 1024x438, 23.976 кадр/с
    Информация о звуке: Русский, английский (AC3, 6 ch, 448 Кбит/с)
    Субтитры: Русские, английские

    Семпл

    MI
    x264 info: frame I:1325 Avg QP:16.22 size: 81843
    x264 info: frame P:34642 Avg QP:18.62 size: 30170
    x264 info: frame B:117592 Avg QP:19.67 size: 10593

    Format : Matroska
    Format version : Version 4 / Version 2
    File size : 2.90 GiB
    Duration : 1h 46mn
    Overall bit rate : 3 895 Kbps
    Movie name : -=MediaClub - Odessit=-
    Encoded date : UTC 2013-11-25 18:26:22
    Writing application : mkvmerge v6.2.0 (;Promised Land;) built on Apr 28 2013 12:22:01
    Writing library : libebml v1.3.0 libmatroska v1.4.0

    Video
    ID : 1
    Format : AVC
    Format/Info : Advanced Video Codec
    Format profile : High@L4.1
    Format settings, CABAC : Yes
    Format settings, ReFrames : 10 frames
    Codec ID : V_MPEG4/ISO/AVC
    Duration : 1h 46mn
    Bit rate : 3 002 Kbps
    Width : 1 024 pixels
    Height : 438 pixels
    Display aspect ratio : 2.35:1
    Frame rate : 23.976 fps
    Color space : YUV
    Chroma subsampling : 4:2:0
    Bit depth : 8 bits
    Scan type : Progressive
    Bits/(Pixel*Frame) : 0.279
    Stream size : 2.18 GiB (75%)
    Writing library : x264 core 130 r2273 b3065e6
    Encoding settings : cabac=1 / ref=10 / deblock=1:-3:-3 / analyse=0x3:0x133 / me=umh / subme=11 / psy=1 / psy_rd=1.00:0.20 / mixed_ref=1 / me_range=48 / chroma_me=1 / trellis=2 / 8x8dct=1 / cqm=0 / deadzone=21,11 / fast_pskip=0 / chroma_qp_offset=-3 / threads=6 / lookahead_threads=1 / sliced_threads=0 / nr=0 / decimate=0 / interlaced=0 / bluray_compat=0 / constrained_intra=0 / bframes=9 / b_pyramid=2 / b_adapt=2 / b_bias=0 / direct=3 / weightb=1 / open_gop=0 / weightp=2 / keyint=240 / keyint_min=23 / scenecut=40 / intra_refresh=0 / rc=2pass / mbtree=0 / bitrate=3002 / ratetol=1.0 / qcomp=0.60 / qpmin=0 / qpmax=69 / qpstep=4 / cplxblur=20.0 / qblur=0.5 / ip_ratio=1.40 / pb_ratio=1.30 / aq=1:1.00
    Language : English

    Audio #1
    ID : 2
    Format : AC-3
    Format/Info : Audio Coding 3
    Mode extension : CM (complete main)
    Codec ID : A_AC3
    Duration : 1h 46mn
    Bit rate mode : Constant
    Bit rate : 448 Kbps
    Channel(s) : 6 channels
    Channel positions : Front: L C R, Side: L R, LFE
    Sampling rate : 48.0 KHz
    Bit depth : 16 bits
    Compression mode : Lossy
    Stream size : 342 MiB (12%)
    Title : Профессиональный многоголосый
    Language : Russian

    Audio #2
    ID : 3
    Format : AC-3
    Format/Info : Audio Coding 3
    Mode extension : CM (complete main)
    Codec ID : A_AC3
    Duration : 1h 46mn
    Bit rate mode : Constant
    Bit rate : 448 Kbps
    Channel(s) : 6 channels
    Channel positions : Front: L C R, Side: L R, LFE
    Sampling rate : 48.0 KHz
    Bit depth : 16 bits
    Compression mode : Lossy
    Stream size : 342 MiB (12%)
    Language : English

    Text #1
    ID : 4
    Format : UTF-8
    Codec ID : S_TEXT/UTF8
    Codec ID/Info : UTF-8 Plain Text
    Language : Russian

    Text #2
    ID : 5
    Format : UTF-8
    Codec ID : S_TEXT/UTF8
    Codec ID/Info : UTF-8 Plain Text
    Language : English

    Menu
    00:00:00.000 : en:Chapter 01
    00:05:00.216 : en:Chapter 02
    00:08:18.539 : en:Chapter 03
    00:15:51.033 : en:Chapter 04
    00:19:43.724 : en:Chapter 05
    00:23:51.888 : en:Chapter 06
    00:28:42.053 : en:Chapter 07
    00:30:45.885 : en:Chapter 08
    00:33:16.160 : en:Chapter 09
    00:38:30.766 : en:Chapter 10
    00:40:29.969 : en:Chapter 11
    00:44:14.443 : en:Chapter 12
    00:48:38.206 : en:Chapter 13
    00:50:53.425 : en:Chapter 14
    00:53:34.461 : en:Chapter 15
    00:56:29.886 : en:Chapter 16
    01:00:21.200 : en:Chapter 17
    01:03:35.478 : en:Chapter 18
    01:05:58.371 : en:Chapter 19
    01:10:43.197 : en:Chapter 20
    01:16:41.805 : en:Chapter 21
    01:22:05.712 : en:Chapter 22
    01:24:57.008 : en:Chapter 23
    01:29:20.646 : en:Chapter 24
    01:35:05.658 : en:Chapter 25
    01:37:50.489 : en:Chapter 26
    01:39:29.838 : en:Chapter 27
    01:41:54.024 : en:Chapter 28


    Скриншоты для ознакомления


    Релиз подготовил: |
    Размер скачиваемого торрента: 2.90 GB (3118337403 Bytes)

    Дом храбрых / Home of the Brave (2006) BDRip-AVC от MediaClub | P торрент скачать бесплатно
    загрузка...
    Рейтинг →
     (голосов: 1, оценка 4/5, голосовать можно 1 раз )

    Другие торренты по теме:

  • Дом храбрых / Home of the Brave (2006) BDRip 1080p от MediaClub | P
  • Дом храбрых / Home of the Brave (2006) BDRip от HQCLUB скачать через торрент бесплатно


    • Комментарии (0):

      Информация

      Информация

        Посетители, находящиеся в группе Гости, не могут оставлять комментарии в данной новости.

        ↓ Меню



        ↓ Опрос

        А Вы добавили сайт в закладки?
        Да
        Не


        Top 10 за месяц (Фильмы)