.
Авторизация | Регистрация
Хочешь лучшие торренты? Добавь свой email!
Добавить
» » Фантом / Phantom (2013) BDRemux 1080p от ExKinoRay | Лицензия, A скачать через торрент бесплатно




    Фантом / Phantom (2013) BDRemux 1080p от ExKinoRay | Лицензия, A скачать через торрент бесплатно

    Опубликовал: Админ | Дата: 27-02-2015, 11:09 | Просмотров: 273




    Детально о кино

    Русское название: Фантом
    Русское название в мировом прокате: Phantom
    Создали в: 2013
    Категория жанра: Триллер
    Снималось в: США, RCR Media Group, Trilogy Entertainment Group, Solar Filmworks
    Главный режиссер: Тодд Робинсон
    Актеры: Эд Харрис, Дэвид Духовны, Уильям Фихтнер, Лэнс Хенриксен, Джонатон Шаех, Джейсон Бех, Шон Патрик Флэнери, Джейсон Грей-Стенфорд, Джулиан Адамс, Дагмара Доминчук


    Сюжет фильма: Капитан советской подводной лодки держит в своих руках судьбу всего мира. Вынужденному покинуть свою семью, ему приходится возглавить секретную миссию окутанную тайной…






    Файл

    Качество фильма: Blu-Ray Remux (1080p)
    Информация о видео: MPEG-4 AVC, 18715 Кбит/с, 1920x1080, 23.976 кадр/с
    Информация о звуке: Русский (AC3, 6 ch, 384 Кбит/с), (AC3, 6 ch, 448 Кбит/с), английский (DTS-HD MA, 6 ch, 3953 Кбит/с)
    Размер скачиваемого торрента: 16.14 ГБ
    Время просмотра: 01:38:29
    Перевод текста: Профессиональный многоголосый, авторский одноголосый
    Субтитры: Английские


    Аудио1: Профессиональный многоголосый закдровый (лицензия)
    Аудио2: Aвторский одноголосый закдровый (A.Дольский)



    Инфо-файл

    Общее
    Уникальный идентификатор : 211898868224657036480078494822006458275 (0x9F6A3CD00C55196D8D0223F7496707A3)
    Полное имя : C:ЗагрузкиPhantom.2013.BDRemux.(1080p.)ExKinoRay.mkv
    Формат : Matroska
    Версия формата : Version 2
    Размер файла : 16,1 Гбайт
    Продолжительность : 1 ч. 38 м.
    Режим общего битрейта : Переменный
    Общий поток : 23,5 Мбит/сек
    Название фильма : Фантом. 2013. Сборка: ollan
    Дата кодирования : UTC 2013-11-23 20:07:22
    Программа кодирования : mkvmerge v5.6.0 (;Kenya Kane;) built on May 27 2012 16:44:04
    Библиотека кодирования : libebml v1.2.3 libmatroska v1.3.0

    Видео
    Идентификатор : 1
    Формат : AVC
    Формат/Информация : Advanced Video Codec
    Профиль формата : High@L4.1
    Параметр CABAC формата : Да
    Параметр ReFrames формата : 2 кадра
    Параметр GOP формата : M=1, N=10
    Идентификатор кодека : V_MPEG4/ISO/AVC
    Продолжительность : 1 ч. 38 м.
    Вид битрейта : Переменный
    Ширина : 1920 пикселей
    Высота : 1080 пикселей
    Соотношение сторон : 16:9
    Режим частоты кадров : Постоянный
    Частота кадров : 23,976 кадра/сек
    Цветовое пространство : YUV
    Субдискретизация насыщенности : 4:2:0
    Битовая глубина : 8 бит
    Тип развёртки : Прогрессивная
    Язык : English
    Default : Нет
    Forced : Нет

    Аудио #1
    Идентификатор : 2
    Формат : AC-3
    Формат/Информация : Audio Coding 3
    Расширение режима : CM (complete main)
    Параметр Endianness формата : Big
    Идентификатор кодека : A_AC3
    Продолжительность : 1 ч. 38 м.
    Вид битрейта : Постоянный
    Битрейт : 384 Кбит/сек
    Каналы : 6 каналов
    Расположение каналов : Front: L C R, Side: L R, LFE
    Частота : 48,0 КГц
    Битовая глубина : 16 бит
    Метод сжатия : С потерями
    Размер потока : 270 Мбайт (2%)
    Заголовок : Профессиональний многоголосый (R5)
    Язык : Russian
    Default : Да
    Forced : Да

    Аудио #2
    Идентификатор : 3
    Формат : AC-3
    Формат/Информация : Audio Coding 3
    Расширение режима : CM (complete main)
    Параметр Endianness формата : Big
    Идентификатор кодека : A_AC3
    Продолжительность : 1 ч. 38 м.
    Вид битрейта : Постоянный
    Битрейт : 448 Кбит/сек
    Каналы : 6 каналов
    Расположение каналов : Front: L C R, Side: L R, LFE
    Частота : 48,0 КГц
    Битовая глубина : 16 бит
    Метод сжатия : С потерями
    Размер потока : 316 Мбайт (2%)
    Заголовок : Авторский одноголосый (Дольский)
    Язык : Russian
    Default : Нет
    Forced : Нет

    Аудио #3
    Идентификатор : 4
    Формат : DTS
    Формат/Информация : Digital Theater Systems
    Профиль формата : MA / Core
    Режим : 16
    Параметр Endianness формата : Big
    Идентификатор кодека : A_DTS
    Продолжительность : 1 ч. 38 м.
    Вид битрейта : Переменный
    Битрейт : Неизвестно / 1509 Кбит/сек
    Каналы : 6 каналов
    Расположение каналов : Front: L C R, Side: L R, LFE
    Частота : 48,0 КГц
    Битовая глубина : 24 бит
    Метод сжатия : Без потерь / Lossy
    Язык : English
    Default : Нет
    Forced : Нет

    Текст
    Идентификатор : 5
    Формат : UTF-8
    Идентификатор кодека : S_TEXT/UTF8
    Идентификатор кодека/Информация : UTF-8 Plain Text
    Язык : English
    Default : Нет
    Forced : Нет

    Меню
    00:00:00.000 : en:00:00:00.000
    00:03:47.144 : en:00:03:47.144
    00:08:23.336 : en:00:08:23.336
    00:11:38.072 : en:00:11:38.072
    00:16:00.334 : en:00:16:00.334
    00:19:33.381 : en:00:19:33.381
    00:24:57.913 : en:00:24:57.913
    00:27:55.716 : en:00:27:55.716
    00:31:39.064 : en:00:31:39.064
    00:37:07.976 : en:00:37:07.976
    00:42:37.722 : en:00:42:37.722
    00:47:16.834 : en:00:47:16.834
    00:51:54.486 : en:00:51:54.486
    00:56:09.825 : en:00:56:09.825
    00:59:47.793 : en:00:59:47.793
    01:03:51.661 : en:01:03:51.661
    01:07:53.236 : en:01:07:53.236
    01:10:04.158 : en:01:10:04.158
    01:13:33.492 : en:01:13:33.492
    01:16:47.311 : en:01:16:47.311
    01:20:48.844 : en:01:20:48.844
    01:24:20.806 : en:01:24:20.806
    01:26:20.050 : en:01:26:20.050
    01:30:17.579 : en:01:30:17.579





    Скриншоты для ознакомления






    Релиз подготовил: Сборка:
    Залил: ollan
    Размер скачиваемого торрента: 16.14 GB (17329431312 Bytes)

    Фантом / Phantom (2013) BDRemux 1080p от ExKinoRay | Лицензия, A скачать через торрент бесплатно
    загрузка...
    Рейтинг →
     (голосов: 1, оценка 5/5, голосовать можно 1 раз )

    Другие торренты по теме:

  • Миссия невыполнима: Протокол Фантом / Mission: Impossible - Ghost Protocol (2011) BDRip-AVC | iPad
  • OST - Фантом / Phantom (2013) MP3 от AGR - Generalfilm
  • Фантом - Час Расплаты (2012) MP3
  • Фантом - Дискография (2008-2012) MP3
  • Кайто Кид - вор-фантом! / Magic Kaito / Kid the Phantom Thief (2010) HDTVRip | Persona99 скачать через торрент бесплатно
  • Фантом / Phantom (2013) BDRip 720p от CINEMANIA | Den904, L, A скачать через торрент бесплатно
  • Фантом / Phantom (2013) BDRip от ed_rez | A скачать через торрент бесплатно
  • Фантом / Phantom (2013) BDRip 1080p | P, A


    • Комментарии (0):

      Информация

      Информация

        Посетители, находящиеся в группе Гости, не могут оставлять комментарии в данной новости.

        ↓ Меню



        ↓ Опрос

        А Вы добавили сайт в закладки?
        Да
        Не


        Top 10 за месяц (Фильмы)