.
Авторизация | Регистрация
Хочешь лучшие торренты? Добавь свой email!
Добавить
» » Соблазнитель 2 / Kokowaah 2 (2013) HDRip-AVC | Чистый звук скачать через торрент бесплатно




    Соблазнитель 2 / Kokowaah 2 (2013) HDRip-AVC | Чистый звук скачать через торрент бесплатно

    Опубликовал: Админ | Дата: 27-02-2015, 11:09 | Просмотров: 210



    Ты готов ко второму раунду?


    Создали в: 2013
    Создали в: Германия / Warner Bros. GmbH, barefoot films
    Категория жанра: Комедия, семейный
    Время просмотра: 02:02:28
    Перевод текста: Профессиональный (полное дублирование) чистый звук
    Субтитры: Английские, немецкие

    Главный режиссер: Тиль Швайгер, Торстен Кюнстлер

    Актеры: Тиль Швайгер, Эмма Швайгер, Самуэль Финци, Жасмин Герат, Маурицио Магно, Маттиас Швайгхефер, Михаэль Островский, Яна Рейнерманн, Гедеон Буркхард, Юлия Йенч

    Сюжет фильма: Генри — в прошлом известный ловелас. Однако пришло время забыть о прежних привычках и стать прилежным семьянином. Дети, бывший муж Катарины, Тристан со своей привлекательной подружкой, молодая няня, истеричный директор студии — все они превращают жизнь Генри в череду смешных, порой неловких ситуаций. Как найти время на всех и в то же время побороть инстинкты, ведь вокруг столько соблазнов…




    Качество фильма: HDRip-AVC
    Тип видео: MKV
    Информация о видео: х.264, 1024x432, 23.976 fps, 1 246 Kbps
    Информация о звуке: 48 kHz, AC3 Dolby Digital, 2/0 (L,C) ch, 448.00 kbps | RUS

    Автор рипа: Rocky Balboa

    MediaInfo
    Format : Matroska
    Format version : Version 4 / Version 2
    File size : 1.45 GiB
    Duration : 2h 2mn
    Overall bit rate : 1 696 Kbps
    Encoded date : UTC 2013-09-12 17:45:58
    Writing application : mkvmerge v6.3.0 (;You can;t stop me!;) built on Jun 28 2013 20:09:41
    Writing library : libebml v1.3.0 libmatroska v1.4.0
    Attachment : Yes

    Video
    ID : 1
    Format : AVC
    Format/Info : Advanced Video Codec
    Format profile : High@L4.1
    Format settings, CABAC : Yes
    Format settings, ReFrames : 10 frames
    Codec ID : V_MPEG4/ISO/AVC
    Duration : 2h 2mn
    Bit rate : 1 246 Kbps
    Width : 1 024 pixels
    Height : 432 pixels
    Display aspect ratio : 2.40:1
    Frame rate mode : Constant
    Frame rate : 23.976 fps
    Color space : YUV
    Chroma subsampling : 4:2:0
    Bit depth : 8 bits
    Scan type : Progressive
    Bits/(Pixel*Frame) : 0.117
    Stream size : 1.04 GiB (72%)
    Title : Соблазнитель 2 / Kokowaah 2 (2013)
    Writing library : x264 core 133 r2334 a3ac64b
    Encoding settings : cabac=1 / ref=10 / deblock=1:-3:-3 / analyse=0x3:0x133 / me=umh / subme=10 / psy=1 / psy_rd=1.00:0.10 / mixed_ref=1 / me_range=48 / chroma_me=1 / trellis=2 / 8x8dct=1 / cqm=0 / deadzone=21,11 / fast_pskip=0 / chroma_qp_offset=-3 / threads=6 / lookahead_threads=1 / sliced_threads=0 / nr=0 / decimate=1 / interlaced=0 / bluray_compat=0 / constrained_intra=0 / bframes=5 / b_pyramid=2 / b_adapt=2 / b_bias=0 / direct=3 / weightb=1 / open_gop=0 / weightp=2 / keyint=240 / keyint_min=22 / scenecut=40 / intra_refresh=0 / rc_lookahead=40 / rc=2pass / mbtree=1 / bitrate=1246 / ratetol=1.0 / qcomp=0.60 / qpmin=10 / qpmax=51 / qpstep=4 / cplxblur=20.0 / qblur=0.5 / ip_ratio=1.40 / aq=1:1.00
    Language : English
    Default : Yes
    Forced : No

    Audio
    ID : 2
    Format : AC-3
    Format/Info : Audio Coding 3
    Mode extension : CM (complete main)
    Format settings, Endianness : Big
    Codec ID : A_AC3
    Duration : 2h 2mn
    Bit rate mode : Constant
    Bit rate : 448 Kbps
    Channel(s) : 2 channels
    Channel positions : Front: L R
    Sampling rate : 48.0 KHz
    Bit depth : 16 bits
    Compression mode : Lossy
    Stream size : 392 MiB (26%)
    Title : Dub
    Language : Russian
    Default : Yes
    Forced : No

    Text #1
    ID : 3
    Format : UTF-8
    Codec ID : S_TEXT/UTF8
    Codec ID/Info : UTF-8 Plain Text
    Language : English
    Default : No
    Forced : No

    Text #2
    ID : 4
    Format : UTF-8
    Codec ID : S_TEXT/UTF8
    Codec ID/Info : UTF-8 Plain Text
    Language : German
    Default : No
    Forced : No
    Скриншоты для ознакомления

    Размер скачиваемого торрента: 1.45 GB (1557714819 Bytes)

    Соблазнитель 2 / Kokowaah 2 (2013) HDRip-AVC | Чистый звук скачать через торрент бесплатно
    загрузка...
    Рейтинг →
     (голосов: 1, оценка 5/5, голосовать можно 1 раз )

    Другие торренты по теме:

  • Соблазнитель 2 / Kokowaah 2 (2013) HDRip | HamsterStudio
  • Соблазнитель 2 / Kokowaah 2 (2013) BDRip-AVC от ExKinoRay | HamsterStudio
  • Соблазнитель 2 / Kokowaah 2 (2013) HDRip от BitTracker | HamsterStudio
  • Соблазнитель 2 / Kokowaah 2 (2013) BDRip-AVC от HELLYWOOD | L2
  • Соблазнитель 2 / Kokowaah 2 (2013) BDRip-AVC от leonardo 59 Scarabey | L2
  • Соблазнитель 2 / Kokowaah 2 (2013) BDRip 720p от leonardo 59 Scarabey | L2
  • Соблазнитель 2 / Kokowaah 2 (2013) НDRip от Scarabey | L2
  • Соблазнитель 2 / Kokowaah 2 (2013) BDRip-AVC от ExKinoRay | Чистый звук


    • Комментарии (0):

      Информация

      Информация

        Посетители, находящиеся в группе Гости, не могут оставлять комментарии в данной новости.

        ↓ Меню



        ↓ Опрос

        А Вы добавили сайт в закладки?
        Да
        Не


        Top 10 за месяц (Фильмы)