.
Авторизация | Регистрация
Хочешь лучшие торренты? Добавь свой email!
Добавить
» » Считанные часы / Hours (2013) BDRip-AVC от MediaClub | L2 скачать торрент бесплатно




    Считанные часы / Hours (2013) BDRip-AVC от MediaClub | L2 скачать торрент бесплатно

    Опубликовал: Админ | Дата: 27-02-2015, 11:09 | Просмотров: 378



    Детально о кино
    Русское название: Считанные часы
    Русское название в мировом прокате: Hours
    Создали в: 2013
    Категория жанра: Триллер
    Главный режиссер: Эрик Хайссерер
    Актеры: Пол Уокер, Дженезис Родригез, Ник Гомес, Мэтт Кук, Тони Бентли, Джудд Лорманд, Мишель Торрес, Керри Кехилл, Ренелл Гиббс

    Сюжет фильма:
    Новый Орлеан. Август 2005-го. Смертоносная Катрина сметает все на своем пути. Отец изо всех сил пытается спасти свою дочь. Он понимает, что справиться со стихией, остановить беспощадный ураган не в его силах. На спасение дочери остаются считаные часы…



    Снималось в: США, Palm-Star Entertainment, Safran Company
    Время просмотра: 01:36:59
    Перевод текста: Любительский двухголосый (DeadSno den904)

    Файл
    Кодек для видео: x264
    Качество фильма: BDRip-AVC Hours 2013 1080p GER Blu-ray AVC DTS-HD MA 5.1-roland2000
    Информация о видео: MPEG-4 AVC, 1695 Кбит/с, 1024x428, 23.976 кадр/с
    Информация о звуке: Русский, английский (AC3, 6 ch, 448 Кбит/с)
    Субтитры: Английские

    Семпл

    MI
    x264 info: frame I:902 Avg QP:15.08 size: 59486
    x264 info: frame P:27134 Avg QP:17.79 size: 19366
    x264 info: frame B:111499 Avg QP:19.00 size: 5844

    Format : Matroska
    Format version : Version 4 / Version 2
    File size : 1.75 GiB
    Duration : 1h 36mn
    Overall bit rate : 2 590 Kbps
    Movie name : -=MediaClub - Odessit=-
    Encoded date : UTC 2013-11-24 13:13:40
    Writing application : mkvmerge v6.2.0 (;Promised Land;) built on Apr 28 2013 12:22:01
    Writing library : libebml v1.3.0 libmatroska v1.4.0

    Video
    ID : 1
    Format : AVC
    Format/Info : Advanced Video Codec
    Format profile : High@L4.1
    Format settings, CABAC : Yes
    Format settings, ReFrames : 10 frames
    Codec ID : V_MPEG4/ISO/AVC
    Duration : 1h 36mn
    Bit rate : 1 695 Kbps
    Width : 1 024 pixels
    Height : 428 pixels
    Display aspect ratio : 2.40:1
    Frame rate : 23.976 fps
    Color space : YUV
    Chroma subsampling : 4:2:0
    Bit depth : 8 bits
    Scan type : Progressive
    Bits/(Pixel*Frame) : 0.161
    Stream size : 1.11 GiB (63%)
    Writing library : x264 core 130 r2273 b3065e6
    Encoding settings : cabac=1 / ref=10 / deblock=1:-2:-2 / analyse=0x3:0x133 / me=umh / subme=11 / psy=1 / psy_rd=1.00:0.20 / mixed_ref=1 / me_range=48 / chroma_me=1 / trellis=2 / 8x8dct=1 / cqm=0 / deadzone=21,11 / fast_pskip=0 / chroma_qp_offset=-3 / threads=6 / lookahead_threads=1 / sliced_threads=0 / nr=0 / decimate=0 / interlaced=0 / bluray_compat=0 / constrained_intra=0 / bframes=9 / b_pyramid=2 / b_adapt=2 / b_bias=0 / direct=3 / weightb=1 / open_gop=0 / weightp=2 / keyint=240 / keyint_min=23 / scenecut=40 / intra_refresh=0 / rc=2pass / mbtree=0 / bitrate=1695 / ratetol=1.0 / qcomp=0.60 / qpmin=0 / qpmax=69 / qpstep=4 / cplxblur=20.0 / qblur=0.5 / ip_ratio=1.40 / pb_ratio=1.30 / aq=1:1.00
    Language : English

    Audio #1
    ID : 2
    Format : AC-3
    Format/Info : Audio Coding 3
    Mode extension : CM (complete main)
    Codec ID : A_AC3
    Duration : 1h 36mn
    Bit rate mode : Constant
    Bit rate : 448 Kbps
    Channel(s) : 6 channels
    Channel positions : Front: L C R, Side: L R, LFE
    Sampling rate : 48.0 KHz
    Bit depth : 16 bits
    Compression mode : Lossy
    Stream size : 311 MiB (17%)
    Title : Любительский двухголосый (DeadSno den904)
    Language : Russian

    Audio #2
    ID : 3
    Format : AC-3
    Format/Info : Audio Coding 3
    Mode extension : CM (complete main)
    Codec ID : A_AC3
    Duration : 1h 36mn
    Bit rate mode : Constant
    Bit rate : 448 Kbps
    Channel(s) : 6 channels
    Channel positions : Front: L C R, Side: L R, LFE
    Sampling rate : 48.0 KHz
    Bit depth : 16 bits
    Compression mode : Lossy
    Stream size : 311 MiB (17%)
    Language : English

    Text
    ID : 4
    Format : UTF-8
    Codec ID : S_TEXT/UTF8
    Codec ID/Info : UTF-8 Plain Text
    Language : English

    Menu
    00:00:00.000 : :Chapter 01
    00:07:04.590 : :Chapter 02
    00:15:39.229 : :Chapter 03
    00:23:37.165 : :Chapter 04
    00:32:11.429 : :Chapter 05
    00:40:26.424 : :Chapter 06
    00:49:04.524 : :Chapter 07
    00:56:11.368 : :Chapter 08
    01:04:57.268 : :Chapter 09
    01:14:31.925 : :Chapter 10
    01:23:40.432 : :Chapter 11
    01:32:41.138 : :Chapter 12
    01:36:59.271 : :Chapter 13

    Скриншоты для ознакомления


    Релиз подготовил: |
    Размер скачиваемого торрента: 1.75 GB (1884080475 Bytes)

    Считанные часы / Hours (2013) BDRip-AVC от MediaClub | L2 торрент скачать бесплатно
    загрузка...
    Рейтинг →
     (голосов: 1, оценка 4/5, голосовать можно 1 раз )

    Другие торренты по теме:

  • Считанные часы / Hours (2013) DVDRip | Sub скачать через торрент бесплатно
  • Считанные часы / Hours (2013) BDRip 720p от CINEMANIA | L2
  • Считанные часы / Hours (2013) BDRip 1080p от CINEMANIA | L2
  • Считанные часы / Hours (2013) HDRip от CINEMANIA | L2
  • Считанные часы / Hours (2013) Blu-ray Remux 1080p от MediaClub | L2
  • Считанные часы / Hours (2013) HDRip от Scarabey | L2
  • Считанные часы / Hours (2013) BDRip 720p от leonardo 59 Scarabey | L2 скачать через торрент бесплатно
  • Считанные часы / Hours (2013) HDRip скачать через торрент бесплатно


    • Комментарии (0):

      Информация

      Информация

        Посетители, находящиеся в группе Гости, не могут оставлять комментарии в данной новости.

        ↓ Меню



        ↓ Опрос

        А Вы добавили сайт в закладки?
        Да
        Не


        Top 10 за месяц (Фильмы)