.
Авторизация | Регистрация
Хочешь лучшие торренты? Добавь свой email!
Добавить
» » Считанные часы / Hours (2013) Blu-ray Remux 1080p от MediaClub | L2 скачать торрент бесплатно




    Считанные часы / Hours (2013) Blu-ray Remux 1080p от MediaClub | L2 скачать торрент бесплатно

    Опубликовал: Админ | Дата: 27-02-2015, 11:09 | Просмотров: 333



    Детально о кино
    Русское название: Считанные часы
    Русское название в мировом прокате: Hours
    Создали в: 2013
    Категория жанра: Триллер
    Главный режиссер: Эрик Хайссерер
    Актеры: Пол Уокер, Дженезис Родригез, Ник Гомес, Мэтт Кук, Тони Бентли, Джудд Лорманд, Мишель Торрес, Керри Кехилл, Ренелл Гиббс

    Сюжет фильма:
    Новый Орлеан. Август 2005-го. Смертоносная Катрина сметает все на своем пути. Отец изо всех сил пытается спасти свою дочь. Он понимает, что справиться со стихией, остановить беспощадный ураган не в его силах. На спасение дочери остаются считаные часы…



    Снималось в: США / Palm-Star Entertainment, Safran Company
    Время просмотра: 01:36:59
    Перевод текста: Любительский двухголосый (DeadSno den904)

    Файл
    Кодек для видео: x264
    Качество фильма: Blu-ray Remux 1080p
    Информация о видео: MPEG-4 AVC, 19991 Кбит/с, 1920x1080, 23.976 кадр/с
    Информация о звуке: Русский (AC3, 6 ch, 448 Кбит/с), английский (DTS-HD MA, 6 ch, 2180 Кбит/с)
    Субтитры: Английские

    MI
    Format : Matroska
    Format version : Version 4 / Version 2
    File size : 15.3 GiB
    Duration : 1h 36mn
    Overall bit rate : 22.6 Mbps
    Movie name : -=MediaClub - Odessit=-
    Encoded date : UTC 2013-11-24 13:46:41
    Writing application : mkvmerge v6.2.0 (;Promised Land;) built on Apr 28 2013 12:22:01
    Writing library : libebml v1.3.0 libmatroska v1.4.0

    Video
    ID : 1
    Format : AVC
    Format/Info : Advanced Video Codec
    Format profile : High@L4.1
    Format settings, CABAC : Yes
    Format settings, ReFrames : 4 frames
    Codec ID : V_MPEG4/ISO/AVC
    Duration : 1h 36mn
    Bit rate mode : Variable
    Bit rate : 19.7 Mbps
    Maximum bit rate : 35.0 Mbps
    Width : 1 920 pixels
    Height : 1 080 pixels
    Display aspect ratio : 16:9
    Frame rate : 23.976 fps
    Color space : YUV
    Chroma subsampling : 4:2:0
    Bit depth : 8 bits
    Scan type : Progressive
    Bits/(Pixel*Frame) : 0.396
    Stream size : 13.3 GiB (87%)

    Audio #1
    ID : 2
    Format : AC-3
    Format/Info : Audio Coding 3
    Mode extension : CM (complete main)
    Codec ID : A_AC3
    Duration : 1h 36mn
    Bit rate mode : Constant
    Bit rate : 448 Kbps
    Channel(s) : 6 channels
    Channel positions : Front: L C R, Side: L R, LFE
    Sampling rate : 48.0 KHz
    Bit depth : 16 bits
    Compression mode : Lossy
    Stream size : 311 MiB (2%)
    Title : Любительский двухголосый (DeadSno den904)
    Language : Russian

    Audio #2
    ID : 3
    Format : DTS
    Format/Info : Digital Theater Systems
    Format profile : MA / Core
    Codec ID : A_DTS
    Duration : 1h 36mn
    Bit rate mode : Variable
    Bit rate : 2 059 Kbps / 1 510 Kbps
    Channel(s) : 6 channels
    Channel positions : Front: L C R, Side: L R, LFE
    Sampling rate : 48.0 KHz
    Bit depth : 16 bits
    Compression mode : Lossless / Lossy
    Language : English

    Text
    ID : 4
    Format : UTF-8
    Codec ID : S_TEXT/UTF8
    Codec ID/Info : UTF-8 Plain Text
    Language : English

    Menu
    00:00:00.000 : :Chapter 01
    00:07:04.590 : :Chapter 02
    00:15:39.229 : :Chapter 03
    00:23:37.165 : :Chapter 04
    00:32:11.429 : :Chapter 05
    00:40:26.424 : :Chapter 06
    00:49:04.524 : :Chapter 07
    00:56:11.368 : :Chapter 08
    01:04:57.268 : :Chapter 09
    01:14:31.925 : :Chapter 10
    01:23:40.432 : :Chapter 11
    01:32:41.138 : :Chapter 12
    01:36:59.271 : :Chapter 13

    Скриншоты для ознакомления


    Релиз подготовил:
    Размер скачиваемого торрента: 15.33 GB (16457065260 Bytes)

    Считанные часы / Hours (2013) Blu-ray Remux 1080p от MediaClub | L2 торрент скачать бесплатно
    загрузка...
    Рейтинг →
     (голосов: 1, оценка 3/5, голосовать можно 1 раз )

    Другие торренты по теме:

  • Считанные часы / Hours (2013) DVDRip | Sub скачать через торрент бесплатно
  • Считанные часы / Hours (2013) BDRip 720p от CINEMANIA | L2
  • Считанные часы / Hours (2013) BDRip 1080p от CINEMANIA | L2
  • Считанные часы / Hours (2013) HDRip от CINEMANIA | L2
  • Считанные часы / Hours (2013) BDRip-AVC от MediaClub | L2
  • Считанные часы / Hours (2013) HDRip от Scarabey | L2
  • Считанные часы / Hours (2013) BDRip 720p от leonardo 59 Scarabey | L2 скачать через торрент бесплатно
  • Считанные часы / Hours (2013) HDRip скачать через торрент бесплатно


    • Комментарии (0):

      Информация

      Информация

        Посетители, находящиеся в группе Гости, не могут оставлять комментарии в данной новости.

        ↓ Меню



        ↓ Опрос

        А Вы добавили сайт в закладки?
        Да
        Не


        Top 10 за месяц (Фильмы)