.
Авторизация | Регистрация
Хочешь лучшие торренты? Добавь свой email!
Добавить
» » Эйнштейн. Теория любви (2013) DVDRip от New Team | лицензия скачать торрент бесплатно




    Эйнштейн. Теория любви (2013) DVDRip от New Team | лицензия скачать торрент бесплатно

    Опубликовал: Админ | Дата: 27-02-2015, 11:09 | Просмотров: 401



    Снималось в: Россия / ЭсЭф Продакшн
    Категория жанра: мелодрама, детектив, биография
    Создали в: 2013
    Время просмотра: 4 серии ~ 45 мин.

    Перевод текста: не требуется
    Субтитры подготовлены: нет
    Оригинальная аудиодорожка: русский

    Главный режиссер: Елена Николаева

    Актеры: Дмитрий Певцов, Александр Балуев, Ольга Будина, Ольга Дроздова, Екатерина Молоховская, Ева Авеева, Иван Рудаков, Витас Эйзенах, Александр Лучинин, Марианна Шульц, Анжелика Каширина, Константин Стрельников...

    Сюжет: Великий физик всю свою жизнь был предан науке, в его жизни не было места романтическим отношениям, пока он не познакомился с Маргаритой Коненковой. Она стала единственной женщиной в его жизни, к которой он смог испытать очень сильные романтические чувства. Маргарита была одной из известных обольстительниц того времени. Под ее чарами находилось очень много знаменитых личностей той эпохи.
    Эйнштейн не уставал прикладывать массу усилий, чтобы снова и снова встретиться с любимой, и с огромным нетерпением ждал каждую их новую встречу. А при встречах он с особой радостью рассказывал ей обо всех своих открытиях и достижениях в области науки. Но даже в самых смелых мыслях гениальному физику не могло прийти в голову, что Маргарита, на самом деле, — сотрудник НКВД. Поэтому она записывала все услышанное, а потом отправляла записи в Россию, включая информацию о том, как продвигается ядерный проект…



    Качество фильма: DVDRip (DVD9 R5)
    Тип видео: AVI

    Информация о видео: 720x400 (16:9), 25.000 fps, XViD ~ 2000 kbps avg, 0.278 bit/pixel
    Информация о звуке: 48 kHz, АС3 2 ch, 192 kbps, русский

    Раздача от:
    MediaInfo

    Общее
    Полное имя : Einshtein.teoriya.lubvi.2013.O.DVDRip_New-Team_by_avproh1.avi
    Формат : AVI
    Формат/Информация : Audio Video Interleave
    Размер файла : 722 Мбайт
    Продолжительность : 45 м.
    Общий поток : 2201 Кбит/сек
    Программа кодирования : VirtualDubModRus 1.5.10.2 (build 2542/release)
    Библиотека кодирования : VirtualDubMod build 2542/release

    Видео
    Идентификатор : 0
    Формат : MPEG-4 Visual
    Профиль формата : Advanced Simple@L5
    Параметр BVOP формата : 1
    Параметр QPel формата : Нет
    Параметр GMC формата : Без точки перехода
    Параметр матрицы формата : Выборочная
    Идентификатор кодека : XVID
    Идентификатор кодека/Подсказка : XviD
    Продолжительность : 45 м.
    Битрейт : 2000 Кбит/сек
    Ширина : 720 пикселей
    Высота : 400 пикселей
    Соотношение сторон : 16:9
    Частота кадров : 25,000 кадров/сек
    Цветовое пространство : YUV
    Субдискретизация насыщенности : 4:2:0
    Битовая глубина : 8 бит
    Тип развёртки : Прогрессивная
    Метод сжатия : С потерями
    Бит/(Пиксели*Кадры) : 0.278
    Размер потока : 656 Мбайт (91%)
    Библиотека кодирования : XviD 73

    Аудио
    Идентификатор : 1
    Формат : AC-3
    Формат/Информация : Audio Coding 3
    Расширение режима : CM (complete main)
    Параметр Endianness формата : Big
    Идентификатор кодека : 2000
    Продолжительность : 45 м.
    Вид битрейта : Постоянный
    Битрейт : 192 Кбит/сек
    Каналы : 2 канала
    Расположение каналов : Front: L R
    Частота : 48,0 КГц
    Битовая глубина : 16 бит
    Метод сжатия : С потерями
    Размер потока : 63,0 Мбайт (9%)
    Выравнивание : Разделение по промежуткам
    Продолжительность промежутка : 40 мс. (1,00 видеокадр)
    Время предзагрузки промежутка : 500 мс.

    Скриншоты для ознакомления:



    Сравнение:

    http://alt.rutor.org/torrent/302217/

    http://screenshotcomparison.com/comparison/49985 большой перекроп у конкурента, а картинку сами видите. Плюс у него в сериях присутствует реклама всевозможная, вот пример из первой серии:

    Залил: avproh
    Размер скачиваемого торрента: 2.81 GB (3020279808 Bytes)

    Эйнштейн. Теория любви (2013) DVDRip от New Team | лицензия торрент скачать бесплатно
    загрузка...
    Рейтинг →
     (голосов: 1, оценка 4/5, голосовать можно 1 раз )

    Другие торренты по теме:

  • Эйнштейн. Теория любви / Эйнштейн / Русская любовь Эйнштейна (2013) DVB от Files-x
  • Эйнштейн. Теория любви / Эйнштейн / Русская любовь Эйнштейна (2013) SATRip от Files-x
  • Эйнштейн. Теория любви (2013) DVD9 R5 от New Team | лицензия
  • Эйнштейн. Теория любви (2013) DVDRip-AVC от New Team | лицензия
  • Максим Гуреев - Альберт Эйнштейн. Теория всего (2017) FB2
  • Эйнштейн. Теория любви (2013) WEBRip от GeneralFilm


    • Комментарии (0):

      Информация

      Информация

        Посетители, находящиеся в группе Гости, не могут оставлять комментарии в данной новости.

        ↓ Меню



        ↓ Опрос

        А Вы добавили сайт в закладки?
        Да
        Не


        Top 10 за месяц (Фильмы)