.
Авторизация | Регистрация
Хочешь лучшие торренты? Добавь свой email!
Добавить
» » Собутыльники / Drinking Buddies (2013) BDRip-AVC от MediaClub | L1 скачать торрент бесплатно




    Собутыльники / Drinking Buddies (2013) BDRip-AVC от MediaClub | L1 скачать торрент бесплатно

    Опубликовал: Админ | Дата: 27-02-2015, 11:09 | Просмотров: 316



    Детально о кино
    Русское название: Собутыльники
    Русское название в мировом прокате: Drinking Buddies
    Создали в: 2013
    Категория жанра: Драма, мелодрама, комедия
    Главный режиссер: Джо Сванберг
    Актеры: Оливия Уайлд, Джейк Джонсон, Анна Кендрик, Рон Ливингстон, Тай Уэст, Майк Брюн, Фрэнк В. Росс

    Сюжет фильма:
    Люк и Кейт сотрудники чикагского пивоваренного завода, где они проводят свои дни, выпивая и флиртуя. Они идеально подходят друг другу, но вот только они оба уже состоят в отношениях…



    Снималось в: США, Burn Later Productions
    Время просмотра: 01:30:22
    Перевод текста: Любительский одноголосый (VANO)

    Файл
    Кодек для видео: x264
    Качество фильма: BDRip-AVC
    Информация о видео: MPEG-4 AVC, 2687 Кбит/с, 1024x436, 23.976 кадр/с
    Информация о звуке: Русский, английский (AC3, 6 ch, 384 Кбит/с)
    Субтитры: Английские

    Семпл

    MI
    x264 info: frame I:670 Avg QP:15.50 size: 76320
    x264 info: frame P:29415 Avg QP:17.89 size: 26248
    x264 info: frame B:99929 Avg QP:19.25 size: 9983


    Format : Matroska
    Format version : Version 4 / Version 2
    File size : 2.18 GiB
    Duration : 1h 30mn
    Overall bit rate : 3 456 Kbps
    Movie name : -=MediaClub - Odessit=-
    Encoded date : UTC 2013-11-23 16:49:35
    Writing application : mkvmerge v6.2.0 (;Promised Land;) built on Apr 28 2013 12:22:01
    Writing library : libebml v1.3.0 libmatroska v1.4.0

    Video
    ID : 1
    Format : AVC
    Format/Info : Advanced Video Codec
    Format profile : High@L4.1
    Format settings, CABAC : Yes
    Format settings, ReFrames : 10 frames
    Codec ID : V_MPEG4/ISO/AVC
    Duration : 1h 30mn
    Bit rate : 2 687 Kbps
    Width : 1 024 pixels
    Height : 436 pixels
    Display aspect ratio : 2.35:1
    Frame rate : 23.976 fps
    Color space : YUV
    Chroma subsampling : 4:2:0
    Bit depth : 8 bits
    Scan type : Progressive
    Bits/(Pixel*Frame) : 0.251
    Stream size : 1.65 GiB (76%)
    Writing library : x264 core 130 r2273 b3065e6
    Encoding settings : cabac=1 / ref=10 / deblock=1:-3:-3 / analyse=0x3:0x133 / me=umh / subme=11 / psy=1 / psy_rd=1.00:0.20 / mixed_ref=1 / me_range=48 / chroma_me=1 / trellis=2 / 8x8dct=1 / cqm=0 / deadzone=21,11 / fast_pskip=0 / chroma_qp_offset=-3 / threads=6 / lookahead_threads=1 / sliced_threads=0 / nr=0 / decimate=0 / interlaced=0 / bluray_compat=0 / constrained_intra=0 / bframes=9 / b_pyramid=2 / b_adapt=2 / b_bias=0 / direct=3 / weightb=1 / open_gop=0 / weightp=2 / keyint=240 / keyint_min=23 / scenecut=40 / intra_refresh=0 / rc=2pass / mbtree=0 / bitrate=2687 / ratetol=1.0 / qcomp=0.60 / qpmin=0 / qpmax=69 / qpstep=4 / cplxblur=20.0 / qblur=0.5 / ip_ratio=1.40 / pb_ratio=1.30 / aq=1:1.00
    Language : English

    Audio #1
    ID : 2
    Format : AC-3
    Format/Info : Audio Coding 3
    Mode extension : CM (complete main)
    Codec ID : A_AC3
    Duration : 1h 30mn
    Bit rate mode : Constant
    Bit rate : 384 Kbps
    Channel(s) : 6 channels
    Channel positions : Front: L C R, Side: L R, LFE
    Sampling rate : 48.0 KHz
    Bit depth : 16 bits
    Compression mode : Lossy
    Stream size : 248 MiB (11%)
    Title : Любительский одноголосый (VANO)
    Language : Russian

    Audio #2
    ID : 3
    Format : AC-3
    Format/Info : Audio Coding 3
    Mode extension : CM (complete main)
    Codec ID : A_AC3
    Duration : 1h 30mn
    Bit rate mode : Constant
    Bit rate : 384 Kbps
    Channel(s) : 6 channels
    Channel positions : Front: L C R, Side: L R, LFE
    Sampling rate : 48.0 KHz
    Bit depth : 16 bits
    Compression mode : Lossy
    Stream size : 248 MiB (11%)
    Language : English

    Text
    ID : 4
    Format : UTF-8
    Codec ID : S_TEXT/UTF8
    Codec ID/Info : UTF-8 Plain Text
    Language : English

    Menu
    00:00:00.000 : :Chapter 01
    00:07:19.439 : :Chapter 02
    00:15:21.545 : :Chapter 03
    00:21:17.067 : :Chapter 04
    00:30:13.269 : :Chapter 05
    00:37:39.215 : :Chapter 06
    00:44:10.356 : :Chapter 07
    00:51:01.391 : :Chapter 08
    00:58:22.582 : :Chapter 09
    01:05:47.026 : :Chapter 10
    01:16:21.076 : :Chapter 11
    01:26:41.446 : :Chapter 12
    01:30:22.708 : :Chapter 13

    Скриншоты для ознакомления


    Релиз подготовил: |
    Размер скачиваемого торрента: 2.18 GB (2342908795 Bytes)

    Собутыльники / Drinking Buddies (2013) BDRip-AVC от MediaClub | L1 торрент скачать бесплатно
    загрузка...
    Рейтинг →
     (голосов: 1, оценка 5/5, голосовать можно 1 раз )

    Другие торренты по теме:

  • Собутыльники / Drinking Buddies (2013) WEB-DLRip | L1
  • Собутыльники / Drinking Buddies (2013) WEB-DL 720p | L1
  • Собутыльники / Drinking Buddies (2013) WEB-DLRip | iPhone скачать через торрент бесплатно
  • Собутыльники / Drinking Buddies (2013) BDRip 1080p от CINEMANIA | L1 скачать через торрент бесплатно
  • Собутыльники / Drinking Buddies (2013) BDRip-AVC от HELLYWOOD | P скачать через торрент бесплатно
  • Собутыльники / Drinking Buddies (2013) BDRip-720p | P скачать через торрент бесплатно
  • Собутыльники / Drinking Buddies (2013) HDRip | P скачать через торрент бесплатно
  • Собутыльники / Drinking Buddies (2013) BDRip 720p от Leonardo and Scarabey | P


    • Комментарии (0):

      Информация

      Информация

        Посетители, находящиеся в группе Гости, не могут оставлять комментарии в данной новости.

        ↓ Меню



        ↓ Опрос

        А Вы добавили сайт в закладки?
        Да
        Не


        Top 10 за месяц (Фильмы)