.
Авторизация | Регистрация
Хочешь лучшие торренты? Добавь свой email!
Добавить
» » Рок-н-ролл под Кремлем (2013) WEB-DLRip от Generalfilm | КПК скачать через торрент бесплатно




    Рок-н-ролл под Кремлем (2013) WEB-DLRip от Generalfilm | КПК скачать через торрент бесплатно

    Опубликовал: Админ | Дата: 27-02-2015, 11:09 | Просмотров: 310



    Детально о кино
    Русское название в мировом прокате: Рок-н-ролл под Кремлем
    Создали в: 2013
    Категория жанра: Боевик, детектив
    Главный режиссер: Евгений Сологалов
    Актеры: Дмитрий Ратомский, Александр Барановский, Всеволод Болдин, Кирилл Каганович, Мария Малиновская (Бурыкина), Сергей Багаев, Александр Никольский (II), Валерий Новиков

    Сюжет фильма:
    В руки молодого выпускника академии ФСБ Юрия Евсеева попадает кассета, на которой записан вербовочный разговор агента ЦРУ и выпускника летного училища. Анализ показывает, что этой записи уже 30 лет. Молодой лейтенант Евсеев обнаруживает прослушивающее устройство и пытается выйти на шпиона. Но расследование только кажется бесперспективным…



    Снималось в: Россия
    Киностудия: Кинокомпания Талан
    Время просмотра: 4 х ~00:45:30
    Перевод текста: Не требуется

    Файл
    Тип видео: MP4
    Качество фильма: WEB-DLRip | КПК
    Информация о видео: MPEG-4 AVC (x264), 640x360, ~500 kbps, 25.000 fps
    Информация о звуке: AAC LC, 44.1 KHz, 2 ch, 128 Kbps
    Субтитры:

    Семпл

    Скриншоты для ознакомления

    MI
    E:KinoRok.N.Roll.Pod.Kremlem.2013.AVC.WEB-DLRip.KPK.GeneralfilmRok.N.Roll.Pod.Kremlem.e02.2013.AVC.WEB-DLRip.KPK.Generalfilm.mp4
    Format : MPEG-4
    Format profile : Base Media
    Codec ID : isom
    File size : 204 MiB
    Duration : 45mn 18s
    Overall bit rate mode : Variable
    Overall bit rate : 629 Kbps
    Encoded date : UTC 2013-11-16 13:18:04
    Tagged date : UTC 2013-11-16 13:18:04

    Video
    ID : 1
    Format : AVC
    Format/Info : Advanced Video Codec
    Format profile : Baseline@L4.1
    Format settings, CABAC : No
    Format settings, ReFrames : 6 frames
    Codec ID : avc1
    Codec ID/Info : Advanced Video Coding
    Duration : 45mn 18s
    Bit rate : 500 Kbps
    Maximum bit rate : 3 419 Kbps
    Width : 640 pixels
    Height : 360 pixels
    Display aspect ratio : 16:9
    Frame rate mode : Constant
    Frame rate : 25.000 fps
    Color space : YUV
    Chroma subsampling : 4:2:0
    Bit depth : 8 bits
    Scan type : Progressive
    Bits/(Pixel*Frame) : 0.087
    Stream size : 162 MiB (79%)
    Writing library : x264 core 125 r2200 999b753
    Encoding settings : cabac=0 / ref=6 / deblock=1:-1:-1 / analyse=0x1:0x111 / me=umh / subme=7 / psy=1 / psy_rd=1.00:0.00 / mixed_ref=0 / me_range=16 / chroma_me=1 / trellis=1 / 8x8dct=0 / cqm=0 / deadzone=21,11 / fast_pskip=0 / chroma_qp_offset=-2 / threads=12 / lookahead_threads=2 / sliced_threads=0 / nr=0 / decimate=1 / interlaced=0 / bluray_compat=0 / constrained_intra=0 / bframes=0 / weightp=0 / keyint=250 / keyint_min=25 / scenecut=40 / intra_refresh=0 / rc_lookahead=60 / rc=2pass / mbtree=1 / bitrate=500 / ratetol=1.0 / qcomp=0.60 / qpmin=0 / qpmax=69 / qpstep=4 / cplxblur=20.0 / qblur=0.5 / ip_ratio=1.40 / aq=1:1.00
    Encoded date : UTC 2013-11-16 13:18:04
    Tagged date : UTC 2013-11-16 13:18:08

    Audio
    ID : 2
    Format : AAC
    Format/Info : Advanced Audio Codec
    Format profile : LC
    Codec ID : 40
    Duration : 45mn 18s
    Bit rate mode : Variable
    Bit rate : 128 Kbps
    Maximum bit rate : 144 Kbps
    Channel count : 2 channels
    Channel positions : Front: L R
    Sampling rate : 44.1 KHz
    Compression mode : Lossy
    Stream size : 41.3 MiB (20%)
    Encoded date : UTC 2013-11-16 13:18:07
    Tagged date : UTC 2013-11-16 13:18:08

    Релиз подготовил:
    Залил: toys_watch
    Размер скачиваемого торрента: 816.92 MB (856599389 Bytes)

    Рок-н-ролл под Кремлем (2013) WEB-DLRip от Generalfilm | КПК скачать через торрент бесплатно
    загрузка...
    Рейтинг →
     (голосов: 1, оценка 5/5, голосовать можно 1 раз )

    Другие торренты по теме:

  • Рок-н-ролл под Кремлем (2013) WEB-DL 1080p скачать через торрент бесплатно
  • Рок-н-ролл под Кремлем (2013) WEB-DLRip скачать через торрент бесплатно
  • Данил Корецкий - Рок-н-ролл под Кремлем. Книга 6. Шпионы и все остальные (2016) MP3


    • Комментарии (0):

      Информация

      Информация

        Посетители, находящиеся в группе Гости, не могут оставлять комментарии в данной новости.

        ↓ Меню



        ↓ Опрос

        А Вы добавили сайт в закладки?
        Да
        Не


        Top 10 за месяц (Фильмы)