.
Авторизация | Регистрация
Хочешь лучшие торренты? Добавь свой email!
Добавить
» » Северо-запад / Nordvest (2013) BDRip-AVC от MediaClub | A, L1 скачать через торрент бесплатно




    Северо-запад / Nordvest (2013) BDRip-AVC от MediaClub | A, L1 скачать через торрент бесплатно

    Опубликовал: Админ | Дата: 27-02-2015, 11:09 | Просмотров: 904



    Детально о кино
    Русское название: Северо-запад
    Русское название в мировом прокате: Nordvest
    Создали в: 2013
    Категория жанра: Боевик, драма, криминал
    Главный режиссер: Михаэль Ноер
    Актеры: Густав Дюэкьер Гис, Оскар Дюэкьер Гис, Лене Мария Кристенсен, Аннамики Бредал Пепинк, Николас Вествуд Кидд, Роланд Мюллер, Дульфи Аль-Джабури, Клемент Блэк Петерсен

    Сюжет фильма:
    Северо-запад Копенгагена является одним из самых бедных и многонациональных районов города. 18-летний Каспер живет здесь со своей матерью, младшим братом и маленькой сестрой. Чтобы свести концы с концами, он вместе со своим другом Робином совершает мелкие кражи из домов, сбывая краденое местному главарю Джамалу, контролирующему небольшую банду в этом районе. Но амбициозный Каспер не хочет, рискуя собой, зависеть от него, рыская ночью по домам за те небольшие наличные, которые он платит взамен. После встречи с Бьорном, одним из лидеров организованной преступной группировки, он соглашается работать на него, понимая, что это поможет подняться ему на совершенно иной, новый уровень в уголовной иерархии криминального мира. Поначалу все идет гладко, пока Джамал и банда не решают отомстить ему, воспринимая его уход как предательство, что неминуемо приведет к вооруженной схватке. Это становится главным испытанием в жизни Каспера: достаточно ли он безжалостен для этого столкновения, сможет ли он защитить брата, невольно подтолкнув его к совершению преступления, и захочет ли сам выбраться из этого преступного мира?



    Снималось в: Дания / Danmarks Radio (DR), Det Danske Filminstitut, Nordisk Film Production
    Время просмотра: 01:30:25
    Перевод текста: Авторский, любительский одноголосый

    Файл
    Кодек для видео: x264
    Качество фильма: BDRip-AVC
    Информация о видео: MPEG-4 AVC, 2686 Кбит/с, 1024x552, 24.000 кадр/c
    Информация о звуке #1: Русский (AC3, 6 ch, 448 Кбит/с) / Авторский одноголосый (А.Алексеев)
    Информация о звуке #2: Русский (AC3, 6 ch, 448 Кбит/с) / Любительский одноголосый (den904)
    Информация о звуке #3: Датский (AC3, 6 ch, 448 Кбит/с)
    Субтитры: Английские

    Семпл

    MI
    Format : Matroska
    Format version : Version 4 / Version 2
    File size : 2.54 GiB
    Duration : 1h 30mn
    Overall bit rate : 4 025 Kbps
    Movie name : -=MediaClub - Odessit=-
    Encoded date : UTC 2013-11-22 09:11:38
    Writing application : mkvmerge v6.2.0 (;Promised Land;) built on Apr 28 2013 12:22:01
    Writing library : libebml v1.3.0 libmatroska v1.4.0

    Video
    ID : 1
    Format : AVC
    Format/Info : Advanced Video Codec
    Format profile : High@L4.1
    Format settings, CABAC : Yes
    Format settings, ReFrames : 10 frames
    Codec ID : V_MPEG4/ISO/AVC
    Duration : 1h 30mn
    Bit rate : 2 686 Kbps
    Width : 1 024 pixels
    Height : 552 pixels
    Display aspect ratio : 1.855
    Frame rate : 24.000 fps
    Color space : YUV
    Chroma subsampling : 4:2:0
    Bit depth : 8 bits
    Scan type : Progressive
    Bits/(Pixel*Frame) : 0.198
    Stream size : 1.64 GiB (65%)
    Writing library : x264 core 130 r2273 b3065e6
    Encoding settings : cabac=1 / ref=10 / deblock=1:-3:-3 / analyse=0x3:0x133 / me=umh / subme=11 / psy=1 / psy_rd=1.00:0.20 / mixed_ref=1 / me_range=48 / chroma_me=1 / trellis=2 / 8x8dct=1 / cqm=0 / deadzone=21,11 / fast_pskip=0 / chroma_qp_offset=-3 / threads=6 / lookahead_threads=1 / sliced_threads=0 / nr=0 / decimate=0 / interlaced=0 / bluray_compat=0 / constrained_intra=0 / bframes=9 / b_pyramid=2 / b_adapt=2 / b_bias=0 / direct=3 / weightb=1 / open_gop=0 / weightp=2 / keyint=240 / keyint_min=24 / scenecut=40 / intra_refresh=0 / rc=2pass / mbtree=0 / bitrate=2686 / ratetol=1.0 / qcomp=0.60 / qpmin=0 / qpmax=69 / qpstep=4 / cplxblur=20.0 / qblur=0.5 / ip_ratio=1.40 / pb_ratio=1.30 / aq=1:1.00
    Language : English

    Audio #1
    ID : 2
    Format : AC-3
    Format/Info : Audio Coding 3
    Mode extension : CM (complete main)
    Codec ID : A_AC3
    Duration : 1h 30mn
    Bit rate mode : Constant
    Bit rate : 448 Kbps
    Channel(s) : 6 channels
    Channel positions : Front: L C R, Side: L R, LFE
    Sampling rate : 48.0 KHz
    Bit depth : 16 bits
    Compression mode : Lossy
    Stream size : 290 MiB (11%)
    Title : Авторский одноголосый (Антон Алексеев)
    Language : Russian

    Audio #2
    ID : 3
    Format : AC-3
    Format/Info : Audio Coding 3
    Mode extension : CM (complete main)
    Codec ID : A_AC3
    Duration : 1h 30mn
    Bit rate mode : Constant
    Bit rate : 448 Kbps
    Channel(s) : 6 channels
    Channel positions : Front: L C R, Side: L R, LFE
    Sampling rate : 48.0 KHz
    Bit depth : 16 bits
    Compression mode : Lossy
    Stream size : 290 MiB (11%)
    Title : Любительский одноголосый (den904)
    Language : Russian

    Audio #3
    ID : 4
    Format : AC-3
    Format/Info : Audio Coding 3
    Mode extension : CM (complete main)
    Codec ID : A_AC3
    Duration : 1h 30mn
    Bit rate mode : Constant
    Bit rate : 448 Kbps
    Channel(s) : 6 channels
    Channel positions : Front: L C R, Side: L R, LFE
    Sampling rate : 48.0 KHz
    Bit depth : 16 bits
    Compression mode : Lossy
    Stream size : 290 MiB (11%)
    Language : Danish

    Text
    ID : 5
    Format : UTF-8
    Codec ID : S_TEXT/UTF8
    Codec ID/Info : UTF-8 Plain Text
    Language : English

    Menu
    00:00:00.000 : en:00:00:00.000
    00:09:59.542 : en:00:09:59.542
    00:19:59.875 : en:00:19:59.875
    00:29:59.667 : en:00:29:59.667
    00:39:59.833 : en:00:39:59.833
    00:49:59.583 : en:00:49:59.583
    00:59:59.750 : en:00:59:59.750
    01:09:59.792 : en:01:09:59.792
    01:19:59.875 : en:01:19:59.875


    Скриншоты для ознакомления


    Релиз подготовил: |
    Размер скачиваемого торрента: 2.54 GB (2729445554 Bytes)

    Северо-запад / Nordvest (2013) BDRip-AVC от MediaClub | A, L1 скачать через торрент бесплатно
    загрузка...
    Рейтинг →
     (голосов: 1, оценка 4/5, голосовать можно 1 раз )

    Другие торренты по теме:

  • Северо-запад / Nordvest (2013) DVDRip | L1
  • Северо-запад / Nordvest / Northwest (2013) BDRip | L1
  • Северо-запад / Nordvest (2013) HDRip от INTERCINEMA | A
  • Северо-запад / Nordvest / Northwest (2013) BDRip-AVC от Rulya74 | A скачать через торрент бесплатно
  • Северо-запад / Nordvest / Northwest (2013) BDRip 1080p от CINEMANIA | A, L1 скачать через торрент бесплатно
  • Северо-запад / Nordvest / Northwest (2013) BDRip 720p от CINEMANIA | A, L1 скачать через торрент бесплатно
  • Северо-запад / Nordvest / Northwest (2013) BDRip 720p от Leonardo and Scarabey | A скачать через торрент бесплатно
  • Северо-запад / Nordvest (2013) HDRip от Scarabey скачать через торрент бесплатно


    • Комментарии (0):

      Информация

      Информация

        Посетители, находящиеся в группе Гости, не могут оставлять комментарии в данной новости.

        ↓ Меню



        ↓ Опрос

        А Вы добавили сайт в закладки?
        Да
        Не


        Top 10 за месяц (Фильмы)