.
Авторизация | Регистрация
Хочешь лучшие торренты? Добавь свой email!
Добавить
» » Мэри Поппинс / Mary Poppins (1964) BDRip от MediaClub | D скачать торрент бесплатно




    Мэри Поппинс / Mary Poppins (1964) BDRip от MediaClub | D скачать торрент бесплатно

    Опубликовал: Админ | Дата: 27-02-2015, 11:09 | Просмотров: 335



    Детально о кино
    Русское название: Мэри Поппинс
    Русское название в мировом прокате: Mary Poppins
    Создали в: 1964
    Категория жанра: Мюзикл, фэнтези, комедия, семейный
    Главный режиссер: Роберт Стивенсон
    Актеры: Джули Эндрюс, Дик Ван Дайк, Дэвид Томлинсон, Глинис Джонс, Гермиона Бадделей, Рита Шоу, Карен Дотрис, Мэттью Гарбер, Эльза Ланчестер, Артур Тричер, Реджинальд Оуэн, Эд Винн, Джейн Дарвелл, Артур Мэлет, Марни Никсон

    Сюжет фильма:
    Семейство Бенкс озабоченно поисками няни для своих детей. И как это бывает только в сказке, она появилась прямо из воздуха, прекрасная, ни на кого не похожая. Как раз такая, какую мечтали бы иметь в своем доме всякие любящие родители. У неё не просто цветущий вид. Она непросто лучше всех умеет готовить, ходить по магазинам, одеваться, танцевать и воспитывать детей. Это всё лишь элементы, лишь составляющие. Нет, тут нечто большее — она именно совершенна, именно лишена недостатков, ибо она — сказочная. Как же не влюбиться в такую…



    Снималось в: США, Великобритания / Walt Disney Productions
    Время просмотра: 02:19:06
    Перевод текста: Дублированный

    Файл
    Кодек для видео: XviD
    Качество фильма: BDRip
    Информация о видео: XviD, 1850 Кбит/с, 720x432, 23.976 кадр/с
    Информация о звуке: АС3, 6 ch, 384 Кбит/с

    Семпл

    О релизе
    За исходный блюр спасибо BitHQ.

    За русскую аудио дорожку спасибо kaspr

    MI
    Format : AVI
    Format/Info : Audio Video Interleave
    Format profile : OpenDML
    File size : 2.18 GiB
    Duration : 2h 19mn
    Overall bit rate : 2 242 Kbps
    Movie name : Mary.Poppins.1964.BDRip.-MediaClub
    Director : -=MediaClub-Odessit=-
    Writing application : VirtualDubMod 1.5.10.3 (build 2550/release)

    Video
    ID : 0
    Format : MPEG-4 Visual
    Format profile : Advanced Simple@L5
    Format settings, BVOP : 1
    Format settings, QPel : No
    Format settings, GMC : No warppoints
    Format settings, Matrix : Custom
    Codec ID : XVID
    Codec ID/Hint : XviD
    Duration : 2h 19mn
    Bit rate : 1 846 Kbps
    Width : 720 pixels
    Height : 432 pixels
    Display aspect ratio : 1.667
    Frame rate : 23.976 fps
    Color space : YUV
    Chroma subsampling : 4:2:0
    Bit depth : 8 bits
    Scan type : Progressive
    Compression mode : Lossy
    Bits/(Pixel*Frame) : 0.248
    Stream size : 1.79 GiB (82%)
    Writing library : XviD 73

    Audio
    ID : 1
    Format : AC-3
    Format/Info : Audio Coding 3
    Mode extension : CM (complete main)
    Codec ID : 2000
    Duration : 2h 19mn
    Bit rate mode : Constant
    Bit rate : 384 Kbps
    Channel(s) : 6 channels
    Channel positions : Front: L C R, Side: L R, LFE
    Sampling rate : 48.0 KHz
    Bit depth : 16 bits
    Compression mode : Lossy
    Stream size : 382 MiB (17%)
    Alignment : Split accross interleaves
    Interleave, duration : 42 ms (1.00 video frame)
    Interleave, preload duration : 500 ms

    Скриншоты для ознакомления


    Релиз подготовил: |
    Размер скачиваемого торрента: 2.18 GB (2338557952 Bytes)

    Мэри Поппинс / Mary Poppins (1964) BDRip от MediaClub | D торрент скачать бесплатно
    загрузка...
    Рейтинг →
     (голосов: 1, оценка 3/5, голосовать можно 1 раз )

    Другие торренты по теме:

  • OST - Мэри Поппинс / Mary Poppins (2004) MP3
  • Мэри Поппинс / Mary Poppins (1964) BDRemux 1080p от MediaClub | D, P
  • Мэри Поппинс / Mary Poppins (1964) BDRip 720p от MediaClub | D, P
  • Мэри Поппинс / Mary Poppins (1964) BDRip
  • Мэри Поппинс / Mary Poppins (1964) BDRip 1080p скачать через торрент бесплатно


    • Комментарии (0):

      Информация

      Информация

        Посетители, находящиеся в группе Гости, не могут оставлять комментарии в данной новости.

        ↓ Меню



        ↓ Опрос

        А Вы добавили сайт в закладки?
        Да
        Не


        Top 10 за месяц (Фильмы)