.
Авторизация | Регистрация
Хочешь лучшие торренты? Добавь свой email!
Добавить
» » Одноклассники 2 / Grown Ups 2 (2013) BDRip 1080p | Лицензия скачать торрент бесплатно




    Одноклассники 2 / Grown Ups 2 (2013) BDRip 1080p | Лицензия скачать торрент бесплатно

    Опубликовал: Админ | Дата: 27-02-2015, 11:09 | Просмотров: 312



    Детально о кино
    Русское название: Одноклассники 2
    Русское название в мировом прокате: Grown Ups 2
    Создали в: 2013
    Категория жанра: Комедия
    Снималось в: США, Columbia Pictures, Happy Madison Productions, Sony Pictures Entertainment (SPE)
    Главный режиссер: Дэннис Дуган
    Актеры: Адам Сэндлер, Кевин Джеймс, Крис Рок, Дэвид Спейд, Сальма Хайек, Мария Белло, Майя Рудольф, Ник Свардсон, Стив Бушеми, Колин Куинн, Тим Медоуз, Тим Медоуз, Джон Ловиц, Шакил О`Нил, Александр Людвиг, Питер Данте, Оливер Хадсон, Стив Остин, Тэйлор Лотнер, Майло Вентимилья, Джэйк Голдберг, Камерон Бойс, Ада-Николь Сэнгер, Чайна Энн МакКлейн, Шери Отери, Эйприл Роуз

    Сюжет фильма: После того как Ленни Федер переезжает с семьей обратно в родной город, он и его друзья извлекут немало уроков, когда их дети окончат школу…



    Файл
    Качество фильма: BDRip (1080p)
    Информация о видео: MPEG-4 AVC, 11.2 Мбит/с, 1920x1036
    Информация о звуке: Русский, украинский (AC3, 6 ch, 640 Кбит/с), английский (DTS, 6 ch, 1510 Кбит/с)
    Размер скачиваемого торрента: 9.85 ГБ
    Время просмотра: 01:40:58
    Перевод текста: Дублированный лицензия / BD CEE
    Субтитры: Русские, английские

    MediaInfo
    Общее
    Уникальный идентификатор : 192998099829616239754390844175654314542 (0x913214FBCCE858EA86147F2C484FE22E)
    Полное имя : D:Grown.Ups.2.2013.D.BDRip.1080p.mkv
    Формат : Matroska
    Версия формата : Version 2
    Размер файла : 9,85 Гбайт
    Продолжительность : 1 ч. 40 м.
    Общий поток : 14,0 Мбит/сек
    Дата кодирования : UTC 2013-11-21 17:25:08
    Программа кодирования : mkvmerge v6.3.0 (;You can;t stop me!;) built on Jun 28 2013 20:09:41
    Библиотека кодирования : libebml v1.3.0 libmatroska v1.4.0

    Видео
    Идентификатор : 1
    Формат : AVC
    Формат/Информация : Advanced Video Codec
    Профиль формата : High@L4.1
    Параметр CABAC формата : Да
    Параметр ReFrames формата : 4 кадра
    Идентификатор кодека : V_MPEG4/ISO/AVC
    Продолжительность : 1 ч. 40 м.
    Битрейт : 11,2 Мбит/сек
    Ширина : 1920 пикселей
    Высота : 1036 пикселей
    Соотношение сторон : 1,85:1
    Режим частоты кадров : Постоянный
    Частота кадров : 23,976 кадра/сек
    Цветовое пространство : YUV
    Субдискретизация насыщенности : 4:2:0
    Битовая глубина : 8 бит
    Тип развёртки : Прогрессивная
    Бит/(Пиксели*Кадры) : 0.235
    Размер потока : 7,69 Гбайт (78%)
    Заголовок : Grown.Ups.2.2013.1080p.BluRay.x264.DTS-WiKi
    Библиотека кодирования : x264 core 129 r2245 704 36 8e61944 tMod MixAQ 8-bit@4:2:0 X86_64
    Настройки программы : cabac=1 / ref=4 / deblock=1:-3:-3 / analyse=0x3:0x133 / me=umh / subme=11 / psy=1 / fade_compensate=0.00 / psy_rd=1.05:0.10 / mixed_ref=1 / me_range=64 / chroma_me=1 / trellis=2 / 8x8dct=1 / cqm=0 / deadzone=21,11 / fast_pskip=0 / chroma_qp_offset=-3 / threads=18 / lookahead_threads=3 / sliced_threads=0 / nr=0 / decimate=0 / interlaced=0 / bluray_compat=0 / constrained_intra=0 / fgo=0 / bframes=8 / b_pyramid=2 / b_adapt=2 / b_bias=0 / direct=3 / weightb=1 / open_gop=0 / weightp=2 / keyint=250 / keyint_min=23 / scenecut=40 / intra_refresh=0 / rc=2pass / mbtree=0 / bitrate=11184 / ratetol=1.0 / qcomp=0.70 / qpmin=0 / qpmax=69 / qpstep=4 / cplxblur=20.0 / qblur=0.5 / ip_ratio=1.40 / pb_ratio=1.30 / aq=3 / aq-strength=0.90 / aq-sensitivity=10.00 / aq-ifactor=1.00 / aq-pfactor=1.00 / aq-bfactor=1.00 / aq2=0
    Язык : English
    Default : Да
    Forced : Да

    Аудио #1
    Идентификатор : 2
    Формат : AC-3
    Формат/Информация : Audio Coding 3
    Расширение режима : CM (complete main)
    Параметр Endianness формата : Big
    Идентификатор кодека : A_AC3
    Продолжительность : 1 ч. 40 м.
    Вид битрейта : Постоянный
    Битрейт : 640 Кбит/сек
    Каналы : 6 каналов
    Расположение каналов : Front: L C R, Side: L R, LFE
    Частота : 48,0 КГц
    Битовая глубина : 16 бит
    Метод сжатия : С потерями
    Размер потока : 462 Мбайт (5%)
    Язык : Russian
    Default : Да
    Forced : Нет

    Аудио #2
    Идентификатор : 3
    Формат : AC-3
    Формат/Информация : Audio Coding 3
    Расширение режима : CM (complete main)
    Параметр Endianness формата : Big
    Идентификатор кодека : A_AC3
    Продолжительность : 1 ч. 40 м.
    Вид битрейта : Постоянный
    Битрейт : 640 Кбит/сек
    Каналы : 6 каналов
    Расположение каналов : Front: L C R, Side: L R, LFE
    Частота : 48,0 КГц
    Битовая глубина : 16 бит
    Метод сжатия : С потерями
    Размер потока : 462 Мбайт (5%)
    Язык : Ukrainian
    Default : Нет
    Forced : Нет

    Аудио #3
    Идентификатор : 4
    Формат : DTS
    Формат/Информация : Digital Theater Systems
    Режим : 16
    Параметр Endianness формата : Big
    Идентификатор кодека : A_DTS
    Продолжительность : 1 ч. 40 м.
    Вид битрейта : Постоянный
    Битрейт : 1509 Кбит/сек
    Каналы : 6 каналов
    Расположение каналов : Front: L C R, Side: L R, LFE
    Частота : 48,0 КГц
    Битовая глубина : 16 бит
    Метод сжатия : С потерями
    Размер потока : 1,06 Гбайт (11%)
    Язык : English
    Default : Нет
    Forced : Нет

    Текст #1
    Идентификатор : 5
    Формат : UTF-8
    Идентификатор кодека : S_TEXT/UTF8
    Идентификатор кодека/Информация : UTF-8 Plain Text
    Язык : Russian
    Default : Нет
    Forced : Нет

    Текст #2
    Идентификатор : 6
    Формат : UTF-8
    Идентификатор кодека : S_TEXT/UTF8
    Идентификатор кодека/Информация : UTF-8 Plain Text
    Язык : English
    Default : Нет
    Forced : Нет

    Меню
    00:00:00.000 : en:00:00:00.000
    00:04:30.937 : en:00:04:30.937
    00:12:02.555 : en:00:12:02.555
    00:18:14.676 : en:00:18:14.676
    00:25:34.157 : en:00:25:34.157
    00:29:47.660 : en:00:29:47.660
    00:37:02.386 : en:00:37:02.386
    00:45:15.712 : en:00:45:15.712
    00:48:53.430 : en:00:48:53.430
    00:54:22.592 : en:00:54:22.592
    01:00:49.937 : en:01:00:49.937
    01:05:15.661 : en:01:05:15.661
    01:10:52.414 : en:01:10:52.414
    01:16:49.354 : en:01:16:49.354
    01:23:26.793 : en:01:23:26.793
    01:31:02.665 : en:01:31:02.665


    Скриншоты для ознакомления


    Размер скачиваемого торрента: 9.85 GB (10581142624 Bytes)

    Одноклассники 2 / Grown Ups 2 (2013) BDRip 1080p | Лицензия торрент скачать бесплатно
    загрузка...
    Рейтинг →
     (голосов: 1, оценка 3/5, голосовать можно 1 раз )

    Другие торренты по теме:

  • Одноклассники 2 / Grown Ups 2 (2013) TS
  • OST - Одноклассники 2 / Grown Ups 2 (2013) MP3 скачать через торрент бесплатно
  • Одноклассники 2 / Grown Ups 2 (2013) BDRip 1080p | Чистый звук скачать через торрент бесплатно
  • Одноклассники 2 / Grown Ups 2 (2013) BDRip 720p | Чистый звук скачать через торрент бесплатно
  • Одноклассники 2 / Grown Ups 2 (2013) HDRip | Чистый звук скачать через торрент бесплатно
  • Одноклассники 2 / Grown Ups 2 (2013) HDRip-AVC | D | Чистый звук
  • Одноклассники 2 / Grown Ups 2 (2013) BDRip-AVC от ed_rez | D | Чистый звук скачать через торрент бесплатно
  • Одноклассники 2 / Grown Ups 2 (2013) HDRip от Scarabey | Чистый звук скачать через торрент бесплатно


    • Комментарии (0):

      Информация

      Информация

        Посетители, находящиеся в группе Гости, не могут оставлять комментарии в данной новости.

        ↓ Меню



        ↓ Опрос

        А Вы добавили сайт в закладки?
        Да
        Не


        Top 10 за месяц (Фильмы)