.
Авторизация | Регистрация
Хочешь лучшие торренты? Добавь свой email!
Добавить
» » Три товарища (2012) DVDRip от New-Team | лицензия скачать торрент бесплатно




    Три товарища (2012) DVDRip от New-Team | лицензия скачать торрент бесплатно

    Опубликовал: Админ | Дата: 27-02-2015, 11:09 | Просмотров: 384



    Снималось в: Россия, Марс Медиа Энтертеймен
    Категория жанра: мелодрама
    Создали в: 2012
    Время просмотра: 4 серии ~ 46 мин.

    Перевод текста: не требуется
    Субтитры подготовлены: нет
    Оригинальная аудиодорожка: русский

    Главный режиссер: Тигран Кеосаян

    Роли озвучивали: Надежда Михалкова, Евгений Пронин, Алексей Серебряков, Евгений Миллер, Андрей Калинин, Лариса Гузеева, Людмила Долгорукова, Игорь Ясулович, Александр Коршунов, Сергей Никоненко...

    Сюжет: В детстве эти трое стояли друг за друга горой, в 90-х, еще учащиеся местной школы, они строили деревянные самолеты на уроке труда. Этому поколению запрещалось даже думать об Америке, они ездили целой школой в Макдоналдс и их наказывали за цитаты из песни Цоя. И судьба у этих ребят сложилась непростая…





    Качество фильма: DVDRip (DVD9 R5)
    Тип видео: AVI

    Информация о видео: 720x400 (16:9), 25.000 fps, XViD ~ 2000 kbps avg, 0.278 bit/pixel
    Информация о звуке: 48 kHz, АС3 6 ch, 448 kbps, русский

    Раздача от:
    MediaInfo

    Общее
    Полное имя : Tri.tovarishya.2012.O.DVDRip_New-Team_by_avproh1.avi
    Формат : AVI
    Формат/Информация : Audio Video Interleave
    Размер файла : 820 Мбайт
    Продолжительность : 46 м.
    Общий поток : 2457 Кбит/сек
    Программа кодирования : VirtualDubMod 1.5.10.3 | www.virtualdub-fr.org || (build 2550/release)
    Библиотека кодирования : VirtualDubMod build 2550/release

    Видео
    Идентификатор : 0
    Формат : MPEG-4 Visual
    Профиль формата : Advanced Simple@L5
    Параметр BVOP формата : 1
    Параметр QPel формата : Нет
    Параметр GMC формата : Без точки перехода
    Параметр матрицы формата : Выборочная
    Идентификатор кодека : XVID
    Идентификатор кодека/Подсказка : XviD
    Продолжительность : 46 м.
    Битрейт : 1999 Кбит/сек
    Ширина : 720 пикселей
    Высота : 400 пикселей
    Соотношение сторон : 16:9
    Частота кадров : 25,000 кадров/сек
    Цветовое пространство : YUV
    Субдискретизация насыщенности : 4:2:0
    Битовая глубина : 8 бит
    Тип развёртки : Прогрессивная
    Метод сжатия : С потерями
    Бит/(Пиксели*Кадры) : 0.278
    Размер потока : 667 Мбайт (81%)
    Библиотека кодирования : XviD 73

    Аудио
    Идентификатор : 1
    Формат : AC-3
    Формат/Информация : Audio Coding 3
    Расширение режима : CM (complete main)
    Параметр Endianness формата : Big
    Идентификатор кодека : 2000
    Продолжительность : 46 м.
    Вид битрейта : Постоянный
    Битрейт : 448 Кбит/сек
    Каналы : 6 каналов
    Расположение каналов : Front: L C R, Side: L R, LFE
    Частота : 48,0 КГц
    Битовая глубина : 16 бит
    Метод сжатия : С потерями
    Размер потока : 149 Мбайт (18%)
    Выравнивание : Разделение по промежуткам
    Продолжительность промежутка : 40 мс. (1,00 видеокадр)
    Время предзагрузки промежутка : 500 мс.

    Скриншоты для ознакомления:



    Сравнение:

    http://alt.rutor.org/torrent/225688/

    http://screenshotcomparison.com/comparison/49537 перекроп у конкурента, а картинку сами видите.

    Залил: avproh
    Размер скачиваемого торрента: 3.14 GB (3366871040 Bytes)

    Три товарища (2012) DVDRip от New-Team | лицензия торрент скачать бесплатно
    загрузка...
    Рейтинг →
     (голосов: 1, оценка 4/5, голосовать можно 1 раз )

    Другие торренты по теме:

  • Три товарища (2012) DVDRip-AVC от New-Team | лицензия
  • Три товарища (2012) DVD9 R5 от New-Team | лицензия скачать через торрент бесплатно
  • Три товарища (2012) WEB-DL 1080p
  • Три товарища (2012) HDTVRip-AVC от Files-x
  • Эрих Мария Ремарк - Три товарища (1936) PDF


    • Комментарии (0):

      Информация

      Информация

        Посетители, находящиеся в группе Гости, не могут оставлять комментарии в данной новости.

        ↓ Меню



        ↓ Опрос

        А Вы добавили сайт в закладки?
        Да
        Не


        Top 10 за месяц (Фильмы)