.
Авторизация | Регистрация
Хочешь лучшие торренты? Добавь свой email!
Добавить




Точка взрыва (2013) DVDRip скачать торрент бесплатно

Опубликовал: Админ | Дата: 27-02-2015, 11:09 | Просмотров: 338



Снималось в: Россия
Создали в: Кинокомпания ВГТРК
Категория жанра: Боевик, криминал, мелодрама
Создали в: 2013

Время просмотра: 4 x ~ 00:45:00


Язык: Русский

Главный режиссер: Дмитрий Кузьмин

Актеры: Дмитрий Певцов, Никита Панфилов, Ирина Линдт, Сослан Фидаров, Людмила Гаврилова, Валентина Шарыкина, Игорь Воробьев, Михаил Окунев, Илья Трусковский, Евгения Гладий



Сюжет: Как известно, сапер ошибается только дважды, и первый раз при выборе профессии. Но сотрудник уникального подразделения московской полиции — Инженерно-Саперного отдела — майор Денис Крамер не представляет своей жизни без любимой работы. У Крамера сложный характер. Он неуступчив, принципиален, и не часто следует инструкциям и предписаниям. Но когда на кону стоят жизни людей, Крамер первым приходит на помощь. Всем известно — он ас своего дела, для которого него практически не существует невыполнимых задач…

Исходник: DVD9 R5

Тип релиза: DVDRip

Контейнер: AVI


Информация о видео: 720x400 (1.80:1), 25 fps, XviD 1104 kbps avg, 0.15 bit/pixel
Информация о звуке: 48 kHz, AC3 2.0 ~448.00 kbps avg



MediaInfo
Общее
Полное имя : D:залитьТочка взрыва1 серия.avi
Формат : AVI
Формат/Информация : Audio Video Interleave
Размер файла : 500 Мбайт
Продолжительность : 44 м.
Общий поток : 1562 Кбит/сек
Программа кодирования : VirtualDubMod 1.5.10.3 | www.virtualdub-fr.org || (build 2550/release)
Библиотека кодирования : VirtualDubMod build 2550/release

Видео
Идентификатор : 0
Формат : MPEG-4 Visual
Профиль формата : Advanced Simple@L5
Параметр BVOP формата : 2
Параметр QPel формата : Нет
Параметр GMC формата : Без точки перехода
Параметр матрицы формата : Default (H.263)
Режим смешивания : Сжатый битовый поток
Идентификатор кодека : XVID
Идентификатор кодека/Подсказка : XviD
Продолжительность : 44 м.
Битрейт : 1105 Кбит/сек
Ширина : 720 пикселей
Высота : 400 пикселей
Соотношение сторон : 16:9
Частота кадров : 25,000 кадров/сек
Цветовое пространство : YUV
Субдискретизация насыщенности : 4:2:0
Битовая глубина : 8 бит
Тип развёртки : Прогрессивная
Метод сжатия : С потерями
Бит/(Пиксели*Кадры) : 0.153
Размер потока : 353 Мбайт (71%)
Библиотека кодирования : XviD 1.2.1 (UTC 2008-12-04)

Аудио
Идентификатор : 1
Формат : AC-3
Формат/Информация : Audio Coding 3
Расширение режима : CM (complete main)
Параметр Endianness формата : Big
Идентификатор кодека : 2000
Продолжительность : 44 м.
Вид битрейта : Постоянный
Битрейт : 448 Кбит/сек
Каналы : 2 канала
Расположение каналов : Front: L R
Частота : 48,0 КГц
Битовая глубина : 16 бит
Метод сжатия : С потерями
Размер потока : 143 Мбайт (29%)
Выравнивание : Разделение по промежуткам
Продолжительность промежутка : 40 мс. (1,00 видеокадр)
Время предзагрузки промежутка : 500 мс.






Скриншоты для ознакомления



Автор рипа:
Залил: YArl
Размер скачиваемого торрента: 1.95 GB (2097008640 Bytes)

Точка взрыва (2013) DVDRip торрент скачать бесплатно
загрузка...
Рейтинг →
 (голосов: 1, оценка 3/5, голосовать можно 1 раз )

Другие торренты по теме:

  • Точка взрыва (2013) SatRip
  • Точка взрыва (2013) DVB
  • Точка взрыва (2013) SATRip-AVC
  • Точка взрыва (2013) HDTVRip


    • Комментарии (0):

      Информация

      Информация

        Посетители, находящиеся в группе Гости, не могут оставлять комментарии в данной новости.

        ↓ Меню



        ↓ Опрос

        А Вы добавили сайт в закладки?
        Да
        Не


        Top 10 за месяц (Фильмы)