.
Авторизация | Регистрация
Хочешь лучшие торренты? Добавь свой email!
Добавить
» » Кэролайн / Caroline (1990) DVDRip - от NovaLan скачать торрент бесплатно




    Кэролайн / Caroline (1990) DVDRip - от NovaLan скачать торрент бесплатно

    Опубликовал: Админ | Дата: 27-02-2015, 11:09 | Просмотров: 369




    Снималось в:США
    Создали в: Hallmark Hall of Fame Productions
    Категория жанра: Триллер
    Создали в: 1990

    Время просмотра: 01:36:09


    Перевод текста: Профессиональный многоголосый

    Оригинальная аудиодорожка: Английская

    Субтитры подготовлены: Нет


    Главный режиссер: Джозеф Сарджент


    Актеры: Стефани Цимбалист, Памела Рид, Джордж Гриззард, Патриция Нил, Дороти МакГуайр, Шон Фелан, Дженни Джейкобс, Либби Уиттемор, Джон Эванс, Барбара Бритт




    Сюжет: Спустя 14 лет после мнимой гибели в авиакатастрофе, Кэролайн возвращается домой. Она утверждает, что никогда не садилась в самолет. Внезапно появившаяся Кэролайн хочет вернуться к семье, но родственники настроены скептически, так как она приехала как вовремя, чтобы унаследовать миллионное состояние недавно умершей бабушки…

    Исходник: DVD5 R5

    Тип релиза: DVDRip

    Контейнер: AVI


    Информация о видео: 704x528 (1.33:1), 23.976 fps, XviD ~1258 kbps avg, 0.14 bit/pixel
    Информация о звуке: #1: 48 kHz, AC3 6.0 ~448.00 kbps avg (RUS)
    Информация о звуке: #2: 48 kHz, AC3 6.0 ~448.00 kbps avg (ENG)



    MediaInfo
    Общее
    Полное имя : D:1АААКэролайн.avi
    Формат : AVI
    Формат/Информация : Audio Video Interleave
    Размер файла : 1,46 Гбайт
    Продолжительность : 1 ч. 36 м.
    Общий поток : 2169 Кбит/сек
    Программа кодирования : VirtualDubMod 1.5.10.2 (build 2540/release)
    Библиотека кодирования : VirtualDubMod build 2540/release

    Видео
    Идентификатор : 0
    Формат : MPEG-4 Visual
    Профиль формата : Advanced Simple@L5
    Параметр BVOP формата : 2
    Параметр QPel формата : Нет
    Параметр GMC формата : Без точки перехода
    Параметр матрицы формата : Default (H.263)
    Режим смешивания : Сжатый битовый поток
    Идентификатор кодека : XVID
    Идентификатор кодека/Подсказка : XviD
    Продолжительность : 1 ч. 36 м.
    Битрейт : 1259 Кбит/сек
    Ширина : 704 пикселя
    Высота : 528 пикселей
    Соотношение сторон : 4:3
    Частота кадров : 23,976 кадра/сек
    Цветовое пространство : YUV
    Субдискретизация насыщенности : 4:2:0
    Битовая глубина : 8 бит
    Тип развёртки : Прогрессивная
    Метод сжатия : С потерями
    Бит/(Пиксели*Кадры) : 0.141
    Размер потока : 866 Мбайт (58%)
    Библиотека кодирования : XviD 1.2.1 (UTC 2008-12-04)

    Аудио #1
    Идентификатор : 1
    Формат : AC-3
    Формат/Информация : Audio Coding 3
    Расширение режима : CM (complete main)
    Параметр Endianness формата : Big
    Идентификатор кодека : 2000
    Продолжительность : 1 ч. 36 м.
    Вид битрейта : Постоянный
    Битрейт : 448 Кбит/сек
    Каналы : 5 каналов
    Расположение каналов : Front: L C R, Side: L R
    Частота : 48,0 КГц
    Битовая глубина : 16 бит
    Метод сжатия : С потерями
    Размер потока : 308 Мбайт (21%)
    Выравнивание : Разделение по промежуткам
    Продолжительность промежутка : 42 мс. (1,00 видеокадр)
    Время предзагрузки промежутка : 500 мс.

    Аудио #2
    Идентификатор : 2
    Формат : AC-3
    Формат/Информация : Audio Coding 3
    Расширение режима : CM (complete main)
    Параметр Endianness формата : Big
    Идентификатор кодека : 2000
    Продолжительность : 1 ч. 36 м.
    Вид битрейта : Постоянный
    Битрейт : 448 Кбит/сек
    Каналы : 5 каналов
    Расположение каналов : Front: L C R, Side: L R
    Частота : 48,0 КГц
    Битовая глубина : 16 бит
    Метод сжатия : С потерями
    Размер потока : 308 Мбайт (21%)
    Выравнивание : Разделение по промежуткам
    Продолжительность промежутка : 42 мс. (1,00 видеокадр)
    Время предзагрузки промежутка : 500 мс.







    Скриншоты для ознакомления




    Релиз группа:

    Автор рипа:
    Залил: YArl
    Размер скачиваемого торрента: 1.46 GB (1564301312 Bytes)

    Кэролайн / Caroline (1990) DVDRip - от NovaLan торрент скачать бесплатно
    загрузка...
    Рейтинг →
     (голосов: 1, оценка 5/5, голосовать можно 1 раз )

    Другие торренты по теме:

  • Кэролайн Роу - Хроники Исаака из Жероны: Средство против шарлатана (2 книга из 2) / Детектив / 2009 / Леонтина Броцкая / MP3


    • Комментарии (0):

      Информация

      Информация

        Посетители, находящиеся в группе Гости, не могут оставлять комментарии в данной новости.

        ↓ Меню



        ↓ Опрос

        А Вы добавили сайт в закладки?
        Да
        Не


        Top 10 за месяц (Фильмы)